<?xml version="1.0" standalone="no"?>
<!DOCTYPE svg PUBLIC "-//W3C//DTD SVG 1.1//EN" "http://www.w3.org/Graphics/SVG/1.1/DTD/svg11.dtd" >
<svg xmlns="http://www.w3.org/2000/svg">
<metadata></metadata>
<defs>
<font id="brooklynregular" horiz-adv-x="1267" >
<font-face units-per-em="2048" ascent="1638" descent="-410" />
<missing-glyph horiz-adv-x="655" />
<glyph horiz-adv-x="0" />
<glyph unicode="&#xd;" horiz-adv-x="0" />
<glyph unicode=" "  horiz-adv-x="655" />
<glyph unicode="&#x09;" horiz-adv-x="655" />
<glyph unicode="&#xa0;" horiz-adv-x="655" />
<glyph unicode="!" horiz-adv-x="616" d="M152 1243q3 86 39.5 137.5t107.5 51.5q81 0 115 -49.5t34 -149.5q0 -50 -5 -99t-13 -97.5t-19 -100.5q-11 -54 -30 -148q-41 -202 -41 -452h-76q0 244 -41 448q-10 52 -31.5 157t-30.5 170.5t-9 131.5zM168 112q3 14 6.5 31t5.5 25q30 80 119 80q55 0 94 -38 q39 -40 39 -94t-37 -93t-92 -39q-105 0 -135 128z" />
<glyph unicode="&#x22;" horiz-adv-x="780" d="M116 1340q0 39 25.5 65.5t63.5 26.5q35 0 61.5 -27t26.5 -65l-70 -400h-39zM484 1340q0 37 27 64.5t61 27.5q35 0 62 -24q26 -22 26 -56v-12l-64 -400h-43z" />
<glyph unicode="#" d="M131 456v116h241l44 280h-228v121h244l60 423h120l-63 -423h270l65 423h120l-64 -423h200v-121h-216l-40 -280h204v-116h-224l-63 -456h-117l64 456h-277l-67 -456h-120l68 456h-221zM488 572h276l41 280h-273z" />
<glyph unicode="$" d="M68 352q8 71 43 117.5t104 46.5q54 0 89.5 -31t35.5 -94q0 -43 -16 -119q20 -152 276 -151v503q-144 21 -244 51.5t-171 92.5t-85 164q-4 28 -4 45q0 92 51 179.5t165 147.5t288 68v248h84v-248q66 0 167 -31t183 -90.5t102 -142.5q0 -6 2 -20.5t2 -22.5 q0 -111 -124 -133q-70 6 -93.5 55t-23.5 129q0 67 -45.5 111.5t-169.5 60.5v-473q146 -18 256.5 -49.5t191 -106.5t80.5 -203q0 -94 -47 -171.5t-125 -133t-172 -85t-184 -29.5v-260h-80v260q-118 6 -235.5 35.5t-205.5 98.5q-87 69 -95 181zM299 1080q0 -96 74 -163 t227 -85v456q-39 0 -105 -14t-127 -60t-69 -134zM684 121q80 0 157 27.5t128 87.5t51 149q-4 76 -52 120t-114.5 63.5t-169.5 39.5v-487z" />
<glyph unicode="%" horiz-adv-x="1843" d="M43 1000q2 99 31 179t79.5 136t112 84.5t125.5 28.5q102 -2 177.5 -54.5t117.5 -147.5q42 -94 45 -222q0 -139 -43.5 -241.5t-117.5 -155.5t-162 -54q-152 0 -252 105t-109 319q0 15 -4 23zM196 987q0 -363 195 -367q9 4 17 4q176 14 176 380q0 149 -45 252.5t-148 103.5 q-100 0 -147.5 -103t-47.5 -270zM387 0l953 1396h116l-948 -1396h-121zM1100 432q2 100 32 180t80 135.5t112 84t124 28.5q101 -2 176.5 -54t117.5 -147t46 -223q0 -138 -43 -240.5t-117 -156t-160 -55.5q-154 0 -255 105t-109 319q0 16 -4 24zM1252 420q0 -364 196 -369 q8 5 20 5q172 14 172 380q0 147 -44.5 249.5t-143.5 102.5q-193 0 -200 -368z" />
<glyph unicode="&#x26;" horiz-adv-x="1640" d="M88 408q2 101 56 190.5t144 152.5t196 89q-61 49 -101 127q-40 77 -43 157q6 72 28 115q27 59 80.5 101.5t121.5 65t138 22.5q80 0 151.5 -32.5t116 -93t44.5 -138.5q0 -92 -65 -183t-220 -141q126 -94 213 -192q86 -96 201 -244q46 83 70 173.5t24 157.5q1 119 -163 141 v64h493v-64q-106 -17 -144.5 -48t-68.5 -111q-8 -24 -22 -83.5t-28 -107.5t-40 -105.5t-66 -117.5q57 -88 112 -140.5t132 -74.5q14 -2 32 -5t44.5 -6t48.5 -5q14 4 39 4v-76h-240q-117 0 -180.5 39t-111.5 121q-84 -95 -206 -144t-258 -49q-132 0 -247 47.5t-181 133.5 q-94 122 -100 260zM307 440q9 -98 21 -133q42 -126 130 -187q88 -62 202 -64q109 3 211.5 52.5t164.5 131.5q-120 174 -240.5 309t-246.5 223q-122 -28 -179.5 -120t-62.5 -212zM524 1159q8 -134 140 -260q98 29 151 106t53 163q0 78 -45 131t-127 53q-43 0 -81.5 -23.5 t-63.5 -67t-27 -102.5z" />
<glyph unicode="'" horiz-adv-x="452" d="M96 1288q0 38 14 70.5t41.5 52t67.5 21.5q60 0 102.5 -51t42.5 -125q0 -84 -59 -161t-141 -112l-24 45q120 80 128 188q-32 -26 -72 -32q-40 4 -68 33.5t-32 70.5z" />
<glyph unicode="(" horiz-adv-x="616" d="M152 744q4 303 87 512.5t329 236.5v-82q-40 -8 -83 -51t-69 -113q-28 -82 -39 -169.5t-12 -181.5t-2 -192t-11 -172q8 -392 48 -532q26 -94 65 -147t103 -72v-78q-161 16 -249.5 115.5t-121.5 240.5t-36 298.5t-5 270.5q0 72 -4 116z" />
<glyph unicode=")" horiz-adv-x="616" d="M37 -219q116 35 168 219q21 78 32 226t11 306v96q-2 74 -3 142t-6.5 157t-17 172t-33.5 148q-26 70 -68.5 113t-82.5 51v82q245 -28 328 -237.5t83 -511.5v-116v-149q0 -143 -11.5 -263t-52 -233.5t-125.5 -190t-222 -89.5v78z" />
<glyph unicode="*" horiz-adv-x="899" d="M108 884q6 54 49.5 81t102 37.5t121.5 21.5v47q-60 5 -118.5 10t-102.5 27t-52 76q14 88 88 88q42 0 75 -25.5t59.5 -61.5t60.5 -81l41 28q-7 24 -35.5 101t-28.5 98q0 101 88 101t89 -101q0 -31 -9.5 -63t-24.5 -66q-15 -36 -32 -74l41 -24q25 36 55.5 78t65 68t76.5 26 q38 0 61 -27t23 -65q0 -51 -46 -74.5t-110 -29.5q-65 -6 -109 -9v-47q26 -12 93 -23.5t92 -17.5t52.5 -29.5t27.5 -69.5q0 -36 -23.5 -60t-60.5 -32q-48 8 -79.5 37.5t-67.5 87t-50 74.5l-41 -23q2 -8 19.5 -57t27.5 -87t10 -68q0 -40 -22 -66t-66 -26q-32 0 -52 25t-24 63 q4 8 5 20q4 34 27.5 105t27.5 91l-41 23q-33 -50 -59.5 -90.5t-61 -71.5t-78.5 -37q-40 6 -58 29q-20 23 -26 63z" />
<glyph unicode="+" horiz-adv-x="1229" d="M104 461v155h441v436h155v-436h436v-155h-436v-445h-155v445h-441z" />
<glyph unicode="," horiz-adv-x="655" d="M184 84q0 58 32 103t96 45q41 0 74.5 -22.5t51.5 -62t18 -91.5q0 -93 -65 -175q-65 -83 -155 -113l-23 40q133 70 155 204q-37 -24 -79 -24q-44 0 -72.5 26t-32.5 70z" />
<glyph unicode="-" horiz-adv-x="819" d="M104 475l60 125h553l-61 -125h-552z" />
<glyph unicode="." horiz-adv-x="655" d="M188 116q0 49 33.5 89.5t85.5 46.5q58 0 100.5 -34t44.5 -83q0 -72 -42 -109.5t-82 -41.5q-45 0 -91 33q-47 33 -49 99z" />
<glyph unicode="/" horiz-adv-x="1229" d="M152 -303l764 1771h176l-764 -1771h-176z" />
<glyph unicode="0" d="M80 680q0 171 44 312t121 239t177 149.5t211 51.5h14q124 -4 225.5 -58t173.5 -149t111.5 -222.5t42.5 -277.5q0 -175 -40 -313.5t-112 -235t-167 -149.5t-205 -60q-122 0 -230 47.5t-189 139t-127.5 225.5t-49.5 301zM307 692q0 -161 28.5 -301.5t103.5 -232.5t204 -94 q16 4 33 4q92 8 152.5 70t94 157.5t46 204t12.5 221.5q0 249 -82 427.5t-252 178.5q-332 0 -340 -635z" />
<glyph unicode="1" d="M328 0v60q56 9 97.5 15.5t75 19.5t54.5 42t21 78v53v832q0 84 -24.5 120t-71.5 44q-46 8 -152 8v59l376 65h80v-1120q0 -152 56 -180q52 -26 188 -36v-60h-700z" />
<glyph unicode="2" d="M88 0v140q131 82 236.5 159t183 147.5t141 144t115.5 149.5q96 148 96 304q0 76 -36 141.5t-99 103.5t-141 38q-64 0 -132 -22.5t-117 -68.5q-49 -48 -55 -112q6 -20 29.5 -60.5t31 -57t7.5 -42.5q0 -44 -36 -68t-84 -32q-51 0 -91.5 50t-44.5 122q2 10 4 29t4 27 q20 86 68 149t118 106t149 64t165 21q181 0 322.5 -85t173.5 -235q8 -38 8 -84q0 -135 -81 -264t-205 -239.5t-251.5 -194.5t-267.5 -166h506q94 0 144.5 24t78.5 68q28 46 72 148l80 -19l-100 -385h-992z" />
<glyph unicode="3" d="M80 289q3 56 38.5 97.5t90.5 41.5q46 0 78.5 -30t32.5 -86q0 -30 -13 -68q-4 -16 -4 -25q0 -40 42.5 -77.5t112 -60.5t146.5 -25q147 4 243.5 91t96.5 285q-10 293 -360 293q-42 0 -128 -8v94q36 0 80 -6q98 0 178 29t125 88t45 145q0 116 -77 194.5t-195 78.5 q-64 0 -123 -21t-97 -57q-38 -34 -40 -78q9 -26 16.5 -46t12 -40t4.5 -37q-1 -85 -109 -101q-116 8 -116 152q4 84 68 158t176 118t252 44q138 -4 241.5 -54.5t157 -130t53.5 -167.5q0 -68 -37 -131.5t-112 -110t-183 -62.5v-4q192 -20 298 -125t106 -247 q0 -139 -87.5 -238.5t-221.5 -149t-267 -49.5q-118 0 -226 31.5t-185 93.5t-101 144q-8 41 -12 57z" />
<glyph unicode="4" d="M51 469q400 512 680 927h193v-896h305l-45 -119h-260v-49q0 -114 10 -167t51 -80t131 -29q8 4 16 4v-60h-600v60q74 6 109 12t55 32q22 24 28.5 67t6.5 132v78h-647zM196 500h535v720z" />
<glyph unicode="5" d="M121 264q3 57 38 98.5t89 41.5q46 0 81 -37t35 -83q0 -11 -7 -36.5t-9 -38.5q0 -64 64 -107.5t164 -45.5q16 4 36 4q88 2 167 44t130 135t51 236q-2 112 -50 193t-126 122q-80 42 -172 42q-97 0 -184 -49.5t-139 -141.5l-84 19v736h635q68 0 102 12t41 60h82l-37 -239 h-700v-410q70 63 164 96t200 33q126 0 240 -49t186 -150t78 -245q0 -165 -79 -288.5t-211 -188t-282 -64.5q-106 0 -218 30.5t-194 98.5t-91 172z" />
<glyph unicode="6" d="M92 708q6 144 46 273t112 226t170 145q144 76 305 76q80 0 183.5 -30t177 -91t73.5 -148q0 -46 -29.5 -72.5t-77.5 -29.5q-54 4 -93 46.5t-39 120.5q0 46 -58 74.5t-145 28.5q-147 1 -225 -71q-172 -158 -172 -556q42 62 103 104.5t136 63.5t153 21q92 0 179 -27.5 t158 -81.5t114 -134t49 -181q0 -110 -44 -202.5t-122.5 -158.5t-178.5 -102q-99 -35 -207 -35q-164 0 -292 74q-276 155 -276 667zM336 424q0 -87 29 -168t101 -136q74 -54 194 -56q82 0 156 40.5t120 117.5q45 78 45 178q0 158 -75 268q-76 110 -230 116q-126 0 -203 -60 t-107 -143t-30 -157z" />
<glyph unicode="7" d="M125 1032l63 364h996l16 -128q-122 -135 -221 -283.5t-173 -307.5t-121 -331t-61 -346h-268q48 254 168 494t259.5 424t264.5 306h-489q-164 0 -219 -16q-60 -20 -94 -61t-58 -115h-63z" />
<glyph unicode="8" d="M88 344q0 127 80 230.5t268 150.5h-4q-154 58 -209 135.5t-59 179.5q4 20 4 48q6 94 71 172.5t175 125t242 46.5q153 0 263 -48t165.5 -125t55.5 -163q0 -68 -35 -131t-105 -108t-168 -65v-4q132 -38 213 -96t114 -128t33 -148q0 -138 -81 -240.5t-209 -156t-265 -56.5 q-122 0 -223.5 32t-172.5 86.5t-110 122.5t-43 140zM268 356q6 -98 56 -165t130 -103t179 -41q156 3 269.5 82t113.5 211q-2 82 -38.5 135.5t-98.5 87t-156.5 62.5t-190.5 59q-80 -24 -139.5 -75t-90.5 -117q-32 -66 -34 -136zM344 1096q5 -66 42.5 -112t92 -74t120.5 -48 t126 -38q130 28 186.5 103t56.5 165q0 77 -41 135t-109 89.5t-146 31.5q-124 0 -220 -68t-108 -184z" />
<glyph unicode="9" d="M76 936q0 142 75 254t200 175t269 63q166 0 292 -72q144 -81 206 -249.5t62 -414.5q-6 -247 -86 -412.5t-230 -242.5q-138 -74 -296 -74q-96 0 -188 27.5t-160 86t-85 146.5q0 47 30.5 74t74.5 27q52 0 90 -42t38 -118q0 -46 60 -76t144 -32q148 7 229 79 q66 66 100.5 148.5t46.5 184t12 253.5q-58 -106 -164.5 -161.5t-236.5 -59.5q-122 2 -231.5 54.5t-178.5 151t-73 230.5zM293 983q4 -7 4 -15q0 -64 20.5 -143t88 -145t194.5 -68q126 0 202 56t107 136t31 156v13q0 92 -27 171.5t-97 133.5t-192 58q-138 0 -233 -95 t-98 -258z" />
<glyph unicode=":" horiz-adv-x="655" d="M188 116q0 49 33.5 89.5t85.5 46.5q58 0 100.5 -34t44.5 -83q0 -72 -42 -109.5t-82 -41.5q-45 0 -91 33q-47 33 -49 99zM188 876q0 46 33.5 88t85.5 48q55 0 99 -35t46 -84q0 -74 -43 -111.5t-81 -37.5q-52 0 -94 34t-46 98z" />
<glyph unicode=";" horiz-adv-x="655" d="M184 84q0 58 32 103t96 45q41 0 74.5 -22.5t51.5 -62t18 -91.5q0 -93 -65 -175q-65 -83 -155 -113l-23 40q133 70 155 204q-37 -24 -79 -24q-44 0 -72.5 26t-32.5 70zM184 876q0 46 33.5 88t85.5 48q59 0 101 -33.5t44 -81.5q0 -74 -42 -111.5t-82 -41.5q-46 0 -92 32 t-48 100z" />
<glyph unicode="&#x3c;" horiz-adv-x="1229" d="M100 471v133l1045 476v-152l-848 -392l848 -392v-148z" />
<glyph unicode="=" horiz-adv-x="1229" d="M104 260v156h1032v-156h-1032zM104 660v155h1032v-155h-1032z" />
<glyph unicode="&#x3e;" horiz-adv-x="1229" d="M100 -4v148l848 392l-848 392v152l1040 -476v-133z" />
<glyph unicode="?" horiz-adv-x="1104" d="M51 1084q4 114 83.5 191.5t194.5 115t226 37.5q122 0 235.5 -40t187.5 -123t74 -208q0 -107 -48 -189q-36 -64 -91 -100t-146 -71t-134.5 -58t-69.5 -67q-31 -52 -39 -195q4 -12 4 -41h-96q0 92 -4 120q16 94 36 144t76 96q55 39 108.5 76.5t100 85t62.5 102.5 q17 72 17 115q0 80 -39 142t-105 96.5t-144 34.5q-102 0 -191.5 -44t-100.5 -132q3 -12 17 -45.5t21 -54t7 -40.5q0 -41 -35.5 -69t-77.5 -31q-62 6 -87.5 43t-41.5 109zM352 116q0 47 32.5 88.5t84.5 47.5q58 0 99.5 -35t43.5 -82q0 -74 -41 -110.5t-83 -40.5 q-43 0 -89.5 33t-46.5 99z" />
<glyph unicode="@" horiz-adv-x="1679" d="M112 680q0 22 4 72q10 100 44.5 194t95.5 179.5t144.5 151t187.5 103.5q142 48 276 48q124 0 242.5 -40t215.5 -115.5t157.5 -182t68.5 -234.5q0 -154 -64.5 -284t-177 -212t-249.5 -104q-66 3 -113.5 33.5t-59.5 82.5q-109 -106 -247 -112q-66 0 -123 35t-91 100 t-36 154q9 134 66.5 267.5t161 220.5t241.5 87q56 0 104 -16t77 -43t34 -61l29 92h172q-11 -34 -46.5 -135t-95.5 -267t-82 -229q-18 -57 -24 -93q3 -14 8.5 -21t13 -10.5t21 -7t21.5 -5.5q106 4 189 79t129 187t46 215q0 116 -49.5 214.5t-135.5 168.5t-193.5 107 t-221.5 37q-128 0 -245 -49t-206.5 -136t-140.5 -205t-51 -250q0 -181 87 -323.5t226 -223.5t287 -89q8 0 21.5 -1t21.5 -1q184 0 338 80.5t250 242.5h88q-36 -107 -134 -202.5t-238 -153.5t-296 -58q-144 0 -280 54.5t-241.5 153.5t-166 229t-60.5 276zM549 456 q7 -112 79 -128q8 0 40 -8q77 3 142.5 73t109.5 203q12 37 43 109.5t48 125.5t17 101q0 53 -25 90.5t-71 44.5q-92 0 -176 -82.5t-144 -259.5q-10 -30 -24.5 -77.5t-25.5 -97.5t-13 -94z" />
<glyph unicode="A" horiz-adv-x="1392" d="M-76 0v60q63 8 108.5 34.5t79.5 75t60 119.5l436 1107h188l437 -1116q32 -78 60 -121t54.5 -62t56.5 -25l60 -12v-60h-575v64q159 12 159 120q-10 40 -22 71.5t-48 121t-54 143.5h-528q-6 -30 -36 -109t-46.5 -133t-16.5 -106q4 -46 43 -73t131 -39v-60h-547zM428 612 h461l-237 608z" />
<glyph unicode="B" horiz-adv-x="1515" d="M64 0v60q86 10 122 24t51 59t15 150l-4 831q0 84 -14 125.5t-52 61t-118 25.5v60h784q250 0 361 -70t139 -162q16 -60 16 -107q0 -229 -293 -285l-4 -4q113 -14 197.5 -63t130 -125t45.5 -164q0 -26 -8 -76q-44 -188 -199 -264t-405 -76h-764zM456 324q0 -76 8 -118 t27.5 -64t57.5 -34q91 -18 191 -24q190 6 296 51q172 84 172 301q-10 248 -264 272q-126 8 -240 9h-248v-393zM456 801h316h3q374 0 374 247q0 154 -123.5 213.5t-300.5 59.5q-125 0 -197 -28.5t-72 -133.5v-358z" />
<glyph unicode="C" horiz-adv-x="1515" d="M88 688q2 143 54 276.5t146 239.5t222 167q126 61 270 61q235 0 408 -148l45 92h63l100 -492h-69q-58 125 -113.5 210.5t-114 135.5t-132 73.5t-175.5 23.5q-90 0 -172 -38t-145.5 -115.5t-100 -198.5t-38.5 -279q0 -132 30.5 -242t89.5 -191.5t142 -130.5 q82 -48 186 -60q41 -4 62 -4q96 0 189.5 35t175 105.5t141.5 168.5l88 -53q-218 -356 -625 -357q-77 1 -111 5q-122 16 -232.5 71t-197 147.5t-136.5 219t-50 278.5z" />
<glyph unicode="D" horiz-adv-x="1640" d="M64 0v60q26 4 54.5 8t51 13t39.5 27q39 40 39 132l-4 852v61q0 86 -46 132t-134 46v65h620q340 0 540 -104q84 -48 157 -143t116 -212t43 -225q-2 -168 -51 -299.5t-146 -224t-241 -140.5t-330 -48h-708zM448 260q10 -130 80 -152q82 -23 180 -28q122 4 236 42 q112 38 188 118q54 58 91 132.5t55 160t18 171.5q0 158 -52 293t-144 199q-162 117 -416 117q-98 0 -158 -24q-60 -23 -70 -105q-4 -46 -4 -119v-768q0 -16 -4 -37z" />
<glyph unicode="E" horiz-adv-x="1476" d="M64 0v60q20 2 45 5t44.5 7.5t35 13t26.5 22.5q33 40 33 120v880q0 72 -5 110t-28 66q-37 47 -151 47v65h1175l141 -368l-67 -24q-115 153 -272 228.5t-349 75.5q-92 0 -156 -20q-84 -32 -84 -148v-344q43 0 64 -4q130 4 188 13.5t92 42.5q46 48 64 200h72v-612h-72 q-11 158 -88 220q-58 44 -184 44h-136v-424q0 -80 29 -125t127 -59q22 0 88 -8q139 4 264.5 50t230.5 130t189 201l64 -29l-184 -436h-1196z" />
<glyph unicode="F" horiz-adv-x="1313" d="M64 0v60q78 10 105 16t46 32q33 48 33 128v872q0 72 -5 110t-28 66q-37 47 -151 47v65h1128l148 -348l-64 -32q-227 288 -592 288q-114 0 -168 -20q-37 -11 -50.5 -42.5t-17.5 -82.5q4 -15 4 -35v-332q46 0 72 -4q128 4 181 13t87 43q46 48 60 200h64v-604h-64 q-12 162 -84 216q-36 30 -85 37t-159 7h-72v-416q0 -80 9 -122t43 -66q38 -32 148 -36v-60h-588z" />
<glyph unicode="G" horiz-adv-x="1640" d="M92 664q0 182 57.5 326t156 241t222.5 147t256 50q224 0 392 -128l40 96h60l129 -436l-82 -24q-77 130 -168 218t-185 130.5t-186 42.5q-114 0 -211.5 -66t-159 -192.5t-73.5 -296.5q-4 -57 -4 -82q0 -279 134 -446q132 -166 326 -176q114 0 215 40t161 118q61 80 61 186 q0 177 -201 192v60h564v-60q-101 -3 -136 -45q-36 -41 -36 -143v-416h-101l-63 140q-88 -80 -211 -127.5t-257 -47.5q-32 0 -48 2q-140 12 -258.5 67.5t-206.5 148.5t-135.5 215t-51.5 266z" />
<glyph unicode="H" horiz-adv-x="1640" d="M64 0v60q116 0 155 56q29 46 29 187v842q0 92 -35 143q-45 43 -149 43v65h577v-65q-107 -1 -149 -39q-40 -38 -40 -164v-336h736v344q0 100 -33 144q-35 51 -151 51v65h573v-65q-113 0 -149 -43q-36 -42 -36 -152v-888q0 -104 39 -143t146 -45v-60h-573v60q107 0 151 52 q33 43 33 152v444h-736v-464q0 -106 45 -145t144 -39v-60h-577z" />
<glyph unicode="I" horiz-adv-x="696" d="M64 0v64q92 0 132 37.5t40 121.5v932q0 92 -36 133q-37 42 -108 48h-28v60h552v-60h-20q-14 -2 -45 -8t-54 -22t-38 -52t-15 -99v-923q0 -96 43 -132t129 -36v-64h-552z" />
<glyph unicode="J" horiz-adv-x="1229" d="M-43 381q0 74 42.5 128t116.5 54q52 0 79.5 -30.5t27.5 -76.5q0 -24 -10.5 -43t-34.5 -49.5t-34 -46t-13 -41.5q2 -50 45.5 -98t119.5 -79t169 -31q176 0 243.5 139t67.5 338v600q0 100 -38 143t-142 43v65h568v-65q-97 0 -139 -33.5t-42 -144.5l-2 -766q0 -109 -44 -197 t-145 -146q-102 -59 -264 -77h-72q-124 0 -239 48.5t-187.5 143.5t-72.5 222z" />
<glyph unicode="K" horiz-adv-x="1476" d="M64 0v60q70 7 103 17.5t52 38.5q29 42 29 144v893q0 98 -35 135q-39 38 -149 48v60h604v-60q-70 -3 -106 -9.5t-62 -26.5q-48 -40 -48 -136v-468l500 457q52 39 52 99q0 74 -140 84v60h576v-60q-81 -28 -157.5 -74t-135.5 -93t-160 -137t-123 -108l404 -672 q98 -166 268 -192v-60h-620v60q155 0 155 83q0 35 -23 85l-344 564l-252 -229v-323q0 -102 48 -144q20 -20 57 -26t111 -10v-60h-604z" />
<glyph unicode="L" horiz-adv-x="1229" d="M64 0v60q111 0 149 56q27 36 27 144v64v835q0 84 -38 130.5t-138 46.5v60h579v-60q-60 -5 -91 -10q-30 -6 -52 -26q-52 -38 -52 -151v-860q0 -20 -4 -41q4 -64 19 -104t57 -52q34 -8 113 -16q154 4 316.5 98t283.5 291l55 -29l-164 -436h-1060z" />
<glyph unicode="M" horiz-adv-x="1884" d="M51 0v60q86 0 128.5 23t55.5 69t13 128v888q0 108 -57 138t-140 30v60h494l391 -1048l432 1048h465v-60q-98 0 -141.5 -41t-43.5 -136v-936q0 -84 45 -123.5t140 -39.5v-60h-569v60q102 0 141 42t39 130v1020l-516 -1252h-88l-480 1288v-1028q0 -133 56 -168 q44 -26 156 -32v-60h-521z" />
<glyph unicode="N" horiz-adv-x="1515" d="M51 0v60q96 0 140.5 38t44.5 130v888q0 100 -24 146t-58 56t-103 13v65h453l676 -1112v892q0 80 -41 117.5t-162 37.5v65h503v-65q-102 0 -143 -33.5t-41 -138.5v-1159h-180l-764 1243v-1020q0 -91 50 -127t151 -36v-60h-502z" />
<glyph unicode="O" horiz-adv-x="1640" d="M88 680q0 162 54 298.5t152 236.5t233 156q135 57 297 61q164 0 297.5 -56t228.5 -155.5t146.5 -227t55.5 -268.5q0 -134 -45 -268.5t-136 -246.5t-226 -179t-305 -68q-190 0 -334 67.5t-236 177.5t-136 234t-46 238zM336 692q0 -132 33 -245.5t98 -200t157 -134.5 q92 -46 204 -48q2 2 4 3t4 1q120 4 210 56t148 143t86 207t28 247q-4 174 -59 311.5t-163 216t-262 78.5q-100 0 -187 -35.5t-153.5 -111.5t-105.5 -199t-42 -289z" />
<glyph unicode="P" d="M64 0v60q82 6 119 28t49 65t12 127v904q0 86 -50 117t-130 35v60h640q122 0 238 -27t200 -97q84 -68 105 -188q9 -50 9 -84q0 -108 -57 -197t-168 -140t-263 -51h-320v-372q0 -66 17 -105t63 -57t132 -18v-60h-596zM448 688h283q317 0 317 340q-2 94 -52 159t-130 97.5 t-170 32.5q-102 0 -175 -19.5t-73 -89.5v-520z" />
<glyph unicode="Q" horiz-adv-x="1679" d="M92 712q4 161 67.5 295t170 228.5t239.5 145.5t271 51q182 -4 324 -69.5t233 -169t131 -220.5q49 -140 49 -285q0 -149 -51.5 -280.5t-149.5 -219.5q88 -86 88 -196q0 -80 -45 -152.5t-134 -126t-214 -77.5q-110 -20 -260 -21q-180 0 -322 45q-143 46 -213 104 q-60 52 -63 120q4 50 31 69q28 19 80 27q124 -18 124 -148q0 -38 53 -67.5t138.5 -45.5t175.5 -16q56 0 129 8q130 18 235 91.5t105 173.5q0 58 -37 112q-187 -121 -419 -121q-147 0 -280.5 55.5t-236.5 157t-161 238.5q-58 136 -58 294zM336 721q0 -107 17 -208.5t62 -195 t128 -160t209 -89.5l4 4q-70 49 -76 108q0 63 81 111.5t207 48.5q134 0 279 -51q80 128 80 387q0 88 -4 129q-16 149 -71.5 266.5t-161.5 186.5t-262 69q-111 -2 -203 -52.5t-155.5 -135.5t-97.5 -193.5t-36 -224.5zM780 140q0 -64 152 -64q65 3 133.5 32.5t98.5 67.5 q-90 43 -196 47q-74 0 -131 -20.5t-57 -62.5z" />
<glyph unicode="R" horiz-adv-x="1476" d="M64 0v60q89 4 131 25.5t53.5 64.5t11.5 130v904q0 88 -50 118q-50 29 -146 29v65h657h115q222 0 336 -52q59 -28 99.5 -64t68.5 -102t28 -166q-6 -93 -58 -166t-136 -116.5t-183 -53.5q117 -154 313 -436q66 -97 119 -130.5t129 -49.5v-60h-340l-460 660h-287v-420 q0 -98 41.5 -138t161.5 -42v-60h-604zM465 744h247h80q360 0 363 313q0 97 -63.5 155.5t-155.5 81.5t-188 23q-112 0 -197.5 -21.5t-85.5 -99.5v-452z" />
<glyph unicode="S" horiz-adv-x="1351" d="M56 469l75 23q92 -168 218.5 -283t287.5 -133q18 0 88 -8q90 2 175.5 37t140.5 103t55 160q0 182 -240 236q-242 59 -340 85.5t-196 70.5q-88 38 -142 114t-57 174q7 96 43 168q26 54 71.5 95t103 66.5t122.5 38t135 12.5q117 0 219.5 -29.5t161.5 -77.5l27 75h71 l125 -372l-64 -24q-90 144 -224 233.5t-288 89.5q-120 0 -204 -50.5t-96 -140.5q0 -90 66 -145.5t156 -84t247.5 -63.5t226.5 -59q276 -90 276 -344q0 -142 -81 -250t-211.5 -163.5t-272.5 -55.5h-3q-239 0 -425 137l-35 -104h-76z" />
<glyph unicode="T" d="M-76 1036l117 360h1192l111 -360l-72 -24q-50 94 -122 163t-152 104t-162 38q-46 0 -68 -8t-28 -25q-6 -18 -9 -60q4 -8 4 -16v-948q0 -71 15.5 -112.5t63.5 -62.5t142 -21v-64h-636v60q86 2 128 15t63 55t21 130v944q0 66 -12 87.5t-68 21.5q-100 0 -187 -36.5 t-156 -104.5t-117 -160z" />
<glyph unicode="U" horiz-adv-x="1595" d="M51 1336v60h596v-60q-93 0 -137 -26.5t-55 -63t-15 -101.5q2 -2 3 -4.5t1 -4.5v-740q0 -162 103.5 -245t312.5 -83q218 0 302.5 108t84.5 295v678q0 70 -16 110t-59.5 58.5t-127.5 18.5v60h500v-60q-92 0 -136 -38t-44 -145v-793q0 -114 -57 -201t-177 -139 q-118 -51 -298 -57q-269 0 -430.5 103.5t-161.5 324.5v764q0 64 -18 101.5t-44 52t-65.5 20t-61.5 7.5z" />
<glyph unicode="V" horiz-adv-x="1431" d="M-60 1336v60h605v-60q-94 -6 -133.5 -25.5t-43.5 -71.5q4 -21 32 -111l352 -913l364 930q12 27 12 63q0 57 -46 92.5t-142 35.5v60h549v-60q-74 -4 -119 -26t-80 -72q-34 -48 -74 -142l-448 -1096h-131l-473 1153q-44 105 -91 139t-133 44z" />
<glyph unicode="W" horiz-adv-x="1968" d="M-60 1331v65h564v-65q-56 0 -94 -12.5t-50 -54.5q0 -12 -4 -27q2 -22 18 -77q18 -56 22 -76l268 -804l239 777q-34 138 -88.5 195.5t-150.5 78.5v65h569v-65q-84 -6 -116.5 -26t-32.5 -66q0 -18 5.5 -39t23 -72.5t19.5 -62.5l256 -785l264 820q18 60 19 104 q0 70 -42.5 93.5t-125.5 33.5v65h512v-65q-52 0 -90 -14.5t-68.5 -53.5t-52.5 -108l-416 -1155h-128l-300 897l-296 -897h-124l-405 1164q-26 78 -63.5 116t-131.5 51z" />
<glyph unicode="X" horiz-adv-x="1476" d="M-60 0v64q148 74 232 133t139 120t151.5 186.5t178.5 221.5l-377 479q-44 56 -93.5 90t-137.5 37v65h631v-65h-4q-146 0 -152 -75q6 -38 37 -80l256 -332l239 305q44 46 44 98q0 84 -144 84v65h555v-65q-87 -15 -134.5 -33t-94.5 -59t-117 -127l-289 -352l416 -541 q54 -68 116 -107q60 -40 156 -48v-64h-672v64q74 6 121 21t47 67q0 30 -14 52.5t-62 84.5l-264 354l-313 -387q-27 -42 -31 -88q8 -94 156 -104v-64h-576z" />
<glyph unicode="Y" horiz-adv-x="1313" d="M-60 1336v60h580v-60q-142 -20 -156 -68q0 -12 -4 -21q4 -27 60 -123l264 -416l284 445q28 44 28 86q0 46 -38 64.5t-102 32.5v60h508v-60q-97 -16 -161 -64t-128 -148l-348 -548v-292q0 -24 -2 -44q4 -106 47 -140q48 -36 127 -40q16 4 41 4v-64h-641v64q24 0 37 -4 q99 6 133 36q51 36 51 164v324l-360 575q-46 79 -89 119t-131 58z" />
<glyph unicode="Z" horiz-adv-x="1313" d="M20 64l976 1220q-138 24 -261 24q-98 0 -181.5 -18t-154.5 -55.5t-133 -96t-114 -138.5l-68 24l152 372h1024l20 -75l-968 -1217q160 -18 300 -24q252 3 415 85.5t253 278.5l64 -24l-148 -420h-1136z" />
<glyph unicode="[" horiz-adv-x="616" d="M188 -280v1748h340v-88q-86 -6 -114 -17t-35 -46t-7 -141v-1227q0 -62 14 -89t40 -34.5t102 -17.5v-88h-340z" />
<glyph unicode="\" horiz-adv-x="1229" d="M152 1468h176l764 -1468h-176z" />
<glyph unicode="]" horiz-adv-x="616" d="M84 -192q78 11 103 18t39 33.5t14 89.5v1227q0 106 -7 141t-35.5 46t-113.5 17v88h340v-1748h-340v88z" />
<glyph unicode="^" horiz-adv-x="1229" d="M108 563l432 833h160l436 -833h-168l-348 637l-344 -637h-168z" />
<glyph unicode="_" horiz-adv-x="1024" d="M0 -196h1024v-120h-1024v120z" />
<glyph unicode="`" horiz-adv-x="696" d="M135 1327q9 40 23.5 62t50.5 22q56 0 139 -55l211 -152l-10 -32l-301 65q-105 14 -113 90z" />
<glyph unicode="a" horiz-adv-x="1188" d="M72 192q0 348 700 388v84q0 96 -12 138t-52 74q-66 52 -180 52q-78 0 -145 -29t-67 -98q0 -125 -101 -133q-34 0 -64.5 26t-34.5 66q12 89 86 144.5t173 79.5t193 24q97 0 208 -31q75 -32 114.5 -61.5t58.5 -78.5t19 -133v-420q0 -202 107 -208q55 6 89 32l40 -57 q-29 -28 -87.5 -47.5t-120.5 -19.5q-78 0 -139 36t-85 111q-172 -147 -376 -147q-127 0 -218.5 56t-105.5 152zM276 248q3 -58 40.5 -103t103.5 -57q16 0 49 -8q137 6 303 139v293q-128 -12 -226 -33t-178 -77q-82 -55 -92 -154z" />
<glyph unicode="b" d="M-4 1340v61q206 25 288 67h93v-604q68 73 160.5 110.5t189.5 37.5q94 0 177.5 -32.5t148.5 -98t102 -162.5t37 -223q-6 -169 -74 -285.5t-176 -171.5t-234 -55q-100 0 -196 35.5t-168 101.5l-51 -121h-113v1164q0 63 -17 98.5t-43.5 50.5t-64 20t-59.5 7zM377 196 q120 -114 270 -120q93 2 169 50t120 142q45 96 45 228q-2 104 -33.5 200t-100 160t-171.5 64q-165 0 -299 -164v-560z" />
<glyph unicode="c" horiz-adv-x="1065" d="M76 496q0 181 72 296.5t185 167.5t239 52q84 0 183 -30t167.5 -92t68.5 -150q0 -48 -28.5 -78t-73.5 -38q-40 0 -70.5 29t-34.5 82q2 10 4 27.5t4 25.5q0 64 -59.5 104t-144.5 40q-260 0 -281 -432q4 -128 42.5 -230t115.5 -154q74 -50 176 -56q189 7 319 192l60 -39 q-68 -114 -182 -172.5t-250 -58.5q-36 0 -52 2q-126 12 -229 68t-167 167t-64 277z" />
<glyph unicode="d" d="M76 492q0 138 61 257t171 191t245 72q154 0 323 -100v233v10q0 99 -36 137q-36 42 -148 48v65q70 6 166 24.5t125 38.5h88v-1208q0 -66 10 -105.5t40.5 -63t90.5 -31.5v-60h-336v140q-64 -68 -149 -111t-178 -45q-124 0 -230.5 54t-172.5 169t-70 285zM291 486 q0 -200 83.5 -303t209.5 -107q85 3 163.5 45.5t128.5 114.5v569q-42 47 -118.5 79t-161.5 32q-122 0 -209 -92q-87 -94 -94 -292q0 -8 -1 -24t-1 -22z" />
<glyph unicode="e" horiz-adv-x="1065" d="M72 500q7 139 63 268q38 77 104.5 132.5t150 83.5t169.5 28q117 0 220 -48t166 -143t63 -229h-715q-4 -58 -4 -80q0 -144 48 -242t126.5 -147t169.5 -51q99 4 183 54t124 138l64 -36q-48 -118 -169 -181t-263 -63q-139 0 -252.5 68t-178.5 187t-69 261zM297 676h491 q0 110 -63 181t-170 71q-96 0 -170 -68t-88 -184z" />
<glyph unicode="f" horiz-adv-x="655" d="M41 0v60q81 0 119 28.5t46.5 68.5t8.5 103v668h-174v63h174q0 84 -2 113q4 68 6 80q14 99 82 171.5t164.5 110t198.5 37.5q62 0 123 -29q61 -30 61 -86q0 -42 -21 -56t-75 -36q-32 2 -52.5 17.5t-46 44t-46.5 43t-52 14.5q-56 0 -99.5 -47t-43.5 -129v-248h204v-63h-204 v-664q0 -68 10.5 -111t48 -68t113.5 -25v-60h-543z" />
<glyph unicode="g" horiz-adv-x="1104" d="M33 -240q3 73 62.5 135.5t152.5 84.5v4q-74 20 -113 64t-43 100q4 74 62.5 136t144.5 76q-88 58 -123 132q-36 74 -36 176q6 101 61 179t147 121.5t201 43.5q82 0 186 -31q100 178 248 178q47 0 86 -22.5t39 -65.5q0 -36 -24 -55.5t-56 -19.5q-19 2 -53.5 17t-58.5 19 q-58 0 -115 -76q163 -128 163 -296q0 -105 -55 -187t-147 -126.5t-199 -47.5q-123 8 -203 37q-98 -48 -104 -108q3 -30 30.5 -52t73.5 -28l104 -13t136.5 -17t167.5 -22q102 -16 164 -33.5t102 -50t54 -88.5q12 -44 12 -88q0 -98 -62 -174t-177 -119t-265 -43 q-191 0 -317.5 36t-184.5 95t-61 129zM156 -223q10 -209 412 -209q166 0 279 53t113 147q0 49 -26 77t-75 41.5t-142 25.5q-64 11 -194.5 26.5t-198.5 20.5q-78 -26 -122 -75.5t-46 -106.5zM336 668q0 -138 44.5 -217t168.5 -83q2 2 3.5 3t2.5 1q95 2 142 47t59 109t12 156 q0 256 -215 256q-112 -3 -164.5 -78.5t-52.5 -193.5z" />
<glyph unicode="h" horiz-adv-x="1351" d="M41 0v60q68 4 106.5 20t55.5 54t20 110v905q-1 105 -31 143q-36 42 -149 48v65q72 6 163 23.5t134 39.5h80v-632q92 86 203.5 129t220.5 43q127 0 216 -66t89 -190v-496q0 -87 30 -141.5t138 -54.5v-60h-549v60q98 4 141 38t43 142v444q0 99 -18.5 145t-89.5 68 q-50 6 -64 6q-82 0 -179 -41.5t-181 -117.5v-476q0 -72 11 -116t48 -68t109 -24v-60h-547z" />
<glyph unicode="i" horiz-adv-x="616" d="M41 884v64q50 6 162 22q111 16 153 21h64v-723q0 -70 11.5 -114t49 -69t111.5 -25v-60h-545v60q64 2 100.5 16t54.5 52q19 38 21 108v432q0 72 -5.5 104t-25.5 64q-34 48 -151 48zM200 1216q0 46 35.5 83.5t84.5 40.5q52 0 89 -34t39 -77q0 -64 -34.5 -96.5t-81.5 -36.5 q-50 0 -89 31t-43 89z" />
<glyph unicode="j" horiz-adv-x="616" d="M-223 -404q0 88 92 97q26 -4 46.5 -19t47.5 -41.5t49 -39.5q24 -13 52 -13q77 0 114 63t37 148v877q0 74 -4.5 106t-22.5 62q-42 48 -151 48v64q48 6 159.5 22t151.5 21h68v-1091q0 -280 -244 -379q-84 -33 -180 -33q-90 0 -149.5 31t-65.5 77zM192 1216q0 44 35 84 t85 40q51 0 87.5 -35t36.5 -81q0 -64 -34 -96t-82 -36q-48 0 -86 32t-42 92z" />
<glyph unicode="k" d="M41 1340v65q22 2 51 4.5t66.5 8.5t80 18t97.5 32h84v-952l328 289q36 27 36 63q0 64 -112 64v59h548v-59q-143 -18 -245.5 -74t-243.5 -190l309 -449q46 -64 118 -109.5t130 -45.5v-64h-557v60q50 0 79.5 10t29.5 46q0 42 -39 107l-217 313l-164 -145v-131 q0 -68 9 -107.5t48.5 -66t122.5 -26.5v-60h-557v60q80 0 130 32.5t50 126.5v949q0 78 -24.5 113.5t-55 43t-102.5 15.5z" />
<glyph unicode="l" horiz-adv-x="616" d="M41 0v60q70 4 107.5 17t55.5 49q17 36 19 106v917q-1 105 -31 143q-36 42 -151 48v65q72 6 161.5 23.5t133.5 39.5h84v-1200q0 -72 10.5 -115t47.5 -68t110 -25v-60h-547z" />
<glyph unicode="m" horiz-adv-x="1923" d="M37 884v64q32 5 157.5 22.5t145.5 20.5h76v-139q44 48 107 84t135.5 56t142.5 20q101 0 177 -40t106 -120q190 160 384 160q126 0 203.5 -70t77.5 -190v-496q0 -56 7.5 -93.5t41.5 -67.5q34 -29 106 -35v-60h-524v60q82 4 125 39t43 141v468q0 88 -42 142q-44 53 -126 53 q-132 0 -300 -131v-536q0 -176 167 -176v-60h-530v60q92 0 127 44q24 23 32 58q8 34 8 118v424q0 88 -39 143.5t-120 55.5q-72 0 -153.5 -32.5t-155.5 -98.5v-532q0 -100 40 -140q42 -40 124 -40v-60h-520v60q78 10 116.5 45t38.5 131v460q0 120 -43 154t-135 34z" />
<glyph unicode="n" horiz-adv-x="1351" d="M41 884v64q50 6 162 22q111 16 153 21h64v-159q190 176 420 176q141 0 230 -69t89 -187v-496q0 -54 9.5 -95t47.5 -71t115 -30v-60h-547v60q93 4 134.5 38t41.5 142v468q0 92 -48 143.5t-136 51.5h-2q-159 0 -354 -163v-472q0 -104 33 -156t139 -52v-60h-545v60 q64 2 100.5 16t54.5 52q19 38 21 108v432q0 72 -5.5 104t-25.5 64q-34 48 -151 48z" />
<glyph unicode="o" horiz-adv-x="1149" d="M76 516q8 148 66 259.5t169 174t269 62.5q116 0 208 -39t156 -108t98 -159.5t38 -193.5q0 -146 -55 -266t-169 -191t-280 -71q-152 0 -265.5 65t-174 186t-60.5 281zM289 500q8 -187 66.5 -307.5t224.5 -128.5q102 0 165 56.5t91 153.5q28 98 28 222q0 167 -67 301.5 t-221 134.5q-116 -2 -180 -80t-85.5 -175.5t-21.5 -176.5z" />
<glyph unicode="p" d="M41 884v64q270 34 303 43h76v-131q132 146 307 152q92 0 174.5 -29t149.5 -91t106 -157t39 -223q0 -110 -34 -205t-97 -168t-152 -114t-196 -41q-157 0 -297 100v-316q0 -80 37 -126t159 -46v-65h-569v65q69 4 105.5 19t51.5 49q16 34 19 104v904q0 100 -35.5 156 t-127.5 56h-19zM420 188q38 -44 109 -74.5t147 -33.5q126 4 213 95t94 290q0 230 -80 339q-81 108 -207 108q-78 0 -153 -41t-123 -111v-572z" />
<glyph unicode="q" horiz-adv-x="1188" d="M76 500q4 172 70 289t168 172q100 55 210 55q96 -3 186 -40q91 -38 150 -100l64 115h100v-1223q3 -100 45.5 -136t138.5 -36v-65h-571v65q118 0 154.5 50t36.5 131v354q-57 -76 -143.5 -111.5t-180.5 -35.5q-60 0 -108 12q-163 42 -241.5 181t-78.5 323zM293 512 q0 -154 35 -251t93 -140t132 -45q84 3 163 49.5t112 110.5v565q-34 44 -107 77.5t-149 33.5q-118 0 -197 -95t-82 -305z" />
<glyph unicode="r" horiz-adv-x="899" d="M41 884v64l307 43h72v-151q166 166 328 172q168 0 168 -113q0 -38 -29 -71q-29 -34 -86 -36q-8 4 -29 4q-18 4 -35 12t-39.5 22.5t-40.5 21.5q-19 8 -37 8q-94 0 -200 -112v-484q0 -116 41 -160q29 -36 123 -44q12 4 24 4v-64h-565v60q107 0 145 48q30 36 31 132v40v384 q0 76 -5.5 113.5t-29.5 66.5q-36 40 -120 40h-23z" />
<glyph unicode="s" horiz-adv-x="1065" d="M80 364h72q8 -18 18 -43t31 -58t59 -71q43 -43 91 -67.5t97.5 -35.5t123.5 -21q58 2 115 21.5t97 58t40 96.5q0 114 -168 152q-274 66 -384 108q-70 28 -115 87t-49 130q10 90 64.5 154.5t137 98.5t174.5 34q90 0 170 -24q78 -24 126 -64l21 71h59l64 -311h-64 q-32 74 -88 129t-129 85t-151 30q-82 0 -138 -31.5t-61 -91.5q0 -60 42.5 -94.5t101.5 -52t169 -41t162 -41.5q112 -40 172 -94t60 -162q0 -14 -4 -56q-16 -122 -142 -199q-124 -77 -286 -77q-180 0 -324 104l-25 -88h-67z" />
<glyph unicode="t" horiz-adv-x="780" d="M41 928v63q279 14 279 377h88v-377h292v-63h-292v-652q0 -103 41.5 -154.5t109.5 -53.5q107 6 185 92l52 -44q-44 -64 -126 -98t-174 -34q-108 0 -199 53q-48 30 -66 79.5t-18 127.5v684h-172z" />
<glyph unicode="u" horiz-adv-x="1392" d="M41 884v64l311 43h68v-671q0 -66 5 -104.5t27 -69t72 -50.5q22 -9 76 -16q88 3 188.5 48.5t188.5 127.5v448q0 108 -46.5 144t-138.5 36v64l308 43h72v-755q0 -92 33 -134t135 -42v-60h-367v172q-82 -85 -198.5 -136.5t-254.5 -51.5q-156 10 -226.5 80t-70.5 225v411 q0 114 -44 149q-43 35 -115 35h-23z" />
<glyph unicode="v" horiz-adv-x="1065" d="M-47 932v59h499v-59q-57 0 -86.5 -14t-49.5 -58q0 -4 36 -112l216 -572l204 555q20 51 20 97q0 64 -35 81t-89 23v59h428v-59q-81 -18 -134.5 -71t-97.5 -161l-296 -700h-120l-323 792q-29 70 -61 101t-111 39z" />
<glyph unicode="w" horiz-adv-x="1595" d="M-41 932v59h493v-59q-68 0 -99 -16t-33 -56q4 -25 24 -88l209 -584l215 520l-51 128q-35 84 -158 96v59h465v-59q-116 0 -121 -76q6 -22 11 -42q6 -20 10 -38l200 -580l207 535q13 30 13 78q0 123 -148 123v59h452v-59q-82 -10 -128 -65t-80 -136l-291 -731h-133 l-205 584l-252 -584h-135q-26 72 -64 178t-86 242.5t-80 229.5q-32 92 -46 126q-54 156 -189 156z" />
<glyph unicode="x" horiz-adv-x="1149" d="M-33 0v60q65 8 115 38t98 86l289 324l-264 328q-40 48 -81 69q-42 21 -104 27v59h512v-63q-91 0 -112 -16q-10 -6 -16 -32q7 -22 20 -40l168 -207l188 191q24 24 25 56q0 24 -24 36t-54 12h-15v63h437v-59q-177 -20 -277 -127l-231 -233l323 -404q34 -46 70 -67.5t68 -29 t78 -11.5v-60h-564v60q124 0 124 69q0 46 -36 86l-180 229l-204 -235q-28 -33 -36 -74q8 -71 140 -71v-64h-457z" />
<glyph unicode="y" horiz-adv-x="1104" d="M-47 932v59h487v-59q-110 0 -116 -72q2 -25 27 -84l30 -72l207 -512l184 484q37 106 37 148q0 53 -31.5 77.5t-105.5 30.5v59h452v-59q-90 -14 -134 -57t-74 -115l-371 -891q-137 -348 -401 -348q-70 0 -123.5 30.5t-53.5 96.5q1 86 101 100q26 -4 45 -18t47 -40t49 -38 t47 -12q52 0 96 48q62 78 132 256l-332 804q-36 84 -59 117t-50.5 45t-89.5 22z" />
<glyph unicode="z" horiz-adv-x="983" d="M12 60l664 856q-74 20 -152 20q-138 0 -252 -68t-160 -196l-65 20l117 299h756l24 -47l-680 -856q120 -24 197 -28q140 4 259.5 69t199.5 215l57 -20l-113 -324h-817z" />
<glyph unicode="{" horiz-adv-x="571" d="M72 600q72 18 108 52t43 104v128q5 68 5 248q0 110 12 178t65 115t166 47h37q-63 -20 -95.5 -55.5t-42.5 -85.5q-12 -50 -14 -135q4 -41 4 -131q0 -91 -4 -137q0 -78 -4 -128.5t-20 -90t-51 -66.5t-93 -39q74 -18 112 -57.5t49 -98.5t11 -151v-168q0 -103 -4 -145 q2 -80 13 -128t43 -82q33 -34 96 -54q-120 0 -181.5 36t-81 94t-22.5 146q5 24 5 64q0 340 -5 376q-11 127 -151 164z" />
<glyph unicode="|" horiz-adv-x="1229" d="M540 0v1468h160v-1468h-160z" />
<glyph unicode="}" horiz-adv-x="571" d="M72 -272q63 20 94.5 53.5t42.5 80.5t12 118.5t2 150.5q0 117 -4 166q4 139 37 207.5t135 91.5q-70 16 -107 53t-49.5 91t-15.5 140q4 60 4 191q0 75 -4 109q0 98 -7.5 150t-39.5 90q-32 36 -100 56q174 0 227 -71t53 -205v-64q0 -340 4 -376q6 -57 46 -99.5t106 -60.5 q-70 -16 -106 -51q-38 -35 -46 -105q0 -34 -4 -72q4 -74 4 -308q-2 -88 -7 -137t-27 -97t-72 -76t-138 -28q-26 0 -40 2z" />
<glyph unicode="~" horiz-adv-x="1229" d="M108 452q134 240 288 240q56 0 106.5 -17t123.5 -50.5t123 -51.5t103 -20q132 21 200 168l88 -97q-63 -102 -128 -161t-160 -67q-41 3 -79 15q-38 11 -126 45q-131 54 -174 69t-88 15q-52 -6 -96.5 -48t-96.5 -136z" />
<glyph unicode="&#xa1;" horiz-adv-x="616" d="M152 -236q0 63 9 126.5t30 171t28 147.5q45 219 45 451h76q0 -136 10 -236.5t31 -210.5q8 -52 29 -161t29.5 -172.5t8.5 -127.5q0 -86 -37 -135t-112 -49q-79 0 -112 49t-35 147zM168 876q3 54 41 95t90 41q34 0 64.5 -19t49.5 -49t19 -64q0 -28 -12 -52 q-31 -78 -121 -84q-110 10 -131 132z" />
<glyph unicode="&#xa2;" d="M236 708q2 102 48 194t135 152t214 70v212h75v-212q68 0 143.5 -28t126 -81t50.5 -122q0 -50 -28 -75q-28 -26 -72 -30q-8 4 -16 4q-58 8 -80 63l-43 107.5t-81 57.5v-592q18 0 68 -8q61 3 110 26q50 22 114 78l48 -45q-35 -79 -134 -131q-100 -52 -206 -59v-248h-75v248 q-186 20 -291 141q-104 120 -106 278zM471 740q4 -94 44.5 -175t117.5 -117v576q-70 -14 -114.5 -96t-47.5 -188z" />
<glyph unicode="&#xa3;" d="M12 160q3 88 77.5 140t166.5 52q99 0 252 -45q-10 71 -51 171t-109 249h-264l32 92h204q-32 95 -40 185q2 123 65.5 218.5t175 150.5t251.5 59q115 0 205.5 -41t140.5 -109q50 -70 50 -150q0 -62 -37 -99.5t-87 -41.5q-8 5 -20 5q-58 18 -64 84q10 17 20 54.5t16 53.5 q0 52 -40 94q-41 42 -100 54q-57 8 -88 8q-68 0 -130 -23.5t-107 -73t-60 -123.5q-1 -12 -2.5 -38t-3.5 -38q3 -62 19 -111t48 -118h416l-32 -92h-344q4 -9 39 -86t50 -130t15 -111q0 -72 -29 -144q242 -78 340 -104q166 8 166 128q0 42 -24.5 68t-63.5 29q-68 0 -133 -33 l-35 56q80 52 174 52q60 0 110.5 -24t79.5 -71t31 -113q0 -74 -42 -134.5t-109 -93t-133 -32.5q-64 0 -122 22t-159.5 79t-126.5 71q-37 -58 -93.5 -101t-122.5 -65.5t-132 -22.5q-94 0 -161 52.5t-79 140.5zM129 160q20 -102 135 -109q148 8 228 154q-114 55 -216 55 q-66 0 -106 -28t-41 -72z" />
<glyph unicode="&#xa4;" d="M121 289l107 107q-96 120 -99 304q5 185 99 291l-107 113l102 108l109 -112q147 104 309 104q157 0 299 -100l108 108l105 -108l-113 -104q108 -126 109 -308q0 -88 -28 -166q-29 -78 -77 -130l111 -107l-103 -105l-108 109q-54 -50 -136 -79.5t-175 -33.5 q-178 8 -297 113l-113 -109zM297 692q0 -94 45.5 -172.5t124.5 -125t174 -46.5q92 0 170.5 47t125 125.5t46.5 171.5q0 71 -26.5 134.5t-74.5 111.5t-109.5 75t-131.5 27q-95 0 -174 -46.5t-124.5 -126.5t-45.5 -175z" />
<glyph unicode="&#xa5;" d="M-64 1323v65h548v-67q-121 -17 -140 -61q0 -2 -8 -23q2 -16 9 -30.5t24 -41.5t31 -53l243 -404l277 424q32 50 32 92q0 74 -143 97v67h514v-67q-80 -22 -142.5 -65.5t-108.5 -98.5t-88 -120t-95 -148h287v-101h-357l-111 -176v-49h468v-94h-468v-185q0 -32 -4 -56 q4 -47 12 -75q8 -29 32 -49q56 -40 172 -40v-64h-617v64q146 12 176 44q26 22 31.5 48.5t5.5 99.5v213h-483v94h483l-144 225h-339v101h291l-172 264q-45 74 -90.5 114.5t-125.5 55.5z" />
<glyph unicode="&#xa6;" horiz-adv-x="725" d="M532 0v1468h160v-1468h-160z" />
<glyph unicode="&#xa7;" horiz-adv-x="1065" d="M64 -64q3 44 30 79.5t70 35.5q48 0 74 -38.5t26 -88.5v-40q10 -70 12 -76q50 -80 260 -80q73 0 137.5 27t103 79.5t38.5 124.5q0 88 -59.5 130.5t-159.5 58.5q-110 16 -188.5 34t-153 55t-123 101t-51.5 158q6 200 200 328q-88 44 -134 118t-50 162q2 86 48.5 160 t138 120t221.5 48q94 0 200 -29t179 -93t73 -161q0 -46 -21 -76.5t-55 -36.5q-116 0 -120 109q4 14 4 59q0 136 -228 136q-106 0 -180 -47t-80 -144q4 -12 4 -33q5 -48 36.5 -79.5t82.5 -52t151 -48.5t158 -47q119 -36 194 -113.5t75 -191.5q0 -88 -38 -178t-87 -142 q63 -31 101 -103.5t38 -160.5q0 -94 -48 -177t-154.5 -135t-268.5 -52q-102 0 -202 33t-170 101t-84 166zM240 576q3 -72 51.5 -122.5t124.5 -68.5q34 -11 97 -27t158 -37t109 -24q44 101 44 187t-45.5 140t-113 83t-175.5 58.5t-138 39.5q-106 -117 -112 -229z" />
<glyph unicode="&#xa8;" horiz-adv-x="860" d="M140 1256q0 50 35 87t85 37t85.5 -37t35.5 -87q0 -48 -35.5 -84t-85.5 -36t-85 36t-35 84zM471 1252q0 52 37.5 88t87.5 36q48 0 84.5 -37t36.5 -87q0 -47 -36.5 -83.5t-84.5 -36.5q-50 0 -87.5 36t-37.5 84z" />
<glyph unicode="&#xa9;" horiz-adv-x="1515" d="M47 696q0 200 97.5 369t263.5 268t360 99t360 -99t263.5 -268t97.5 -369q0 -198 -97.5 -367t-263.5 -267.5t-360 -98.5t-360 98.5t-263.5 267.5t-97.5 367zM144 696q0 -172 84 -319t228 -232t312 -85t313 85t230 232t85 319t-85 319.5t-229 234t-314 86.5t-313 -86 t-227 -234t-84 -320zM377 688q3 96 38 184t93 140q110 100 288 100q58 0 115 -10t97.5 -22t62.5 -19v-217h-51q0 79 -32 128t-80 69t-99 20q-96 0 -161.5 -48.5t-99.5 -128.5t-40 -172q6 -146 82.5 -257t214.5 -119q11 4 27 4q152 16 216 156l44 -17q-34 -85 -122.5 -142 t-197.5 -57q-176 0 -281.5 119t-113.5 289z" />
<glyph unicode="&#xaa;" horiz-adv-x="860" d="M100 948q0 196 424 228v67q0 121 -143 121q-110 0 -121 -60q4 -8 4 -16q0 -68 -68 -76q-44 14 -55.5 21.5t-15.5 38.5q16 82 99.5 119t183.5 37q105 0 178.5 -45.5t73.5 -143.5v-252q0 -50 6 -71q7 -22 26 -32q6 -2 17 -4t16 -4q27 6 51 21l29 -41q-37 -44 -137 -51 q-112 8 -140 88q-50 -36 -100 -53.5t-129 -30.5q-76 2 -134.5 38t-64.5 101zM112 620v68h623v-68h-623zM240 973q8 -72 80 -84q20 -1 28 -5q100 8 176 76v160q-122 -14 -195 -40.5t-89 -106.5z" />
<glyph unicode="&#xab;" horiz-adv-x="735" d="M104 545l224 352l59 -37l-127 -315l108 -326l-65 -35zM356 545l220 352l65 -37l-129 -315l104 -326l-61 -35z" />
<glyph unicode="&#xac;" horiz-adv-x="1229" d="M104 660v155h1032v-551h-149v396h-883z" />
<glyph unicode="&#xad;" horiz-adv-x="819" d="M104 475l60 125h553l-61 -125h-552z" />
<glyph unicode="&#xae;" horiz-adv-x="1515" d="M47 696q0 200 97.5 369t263.5 268t360 99t360 -99t263.5 -268t97.5 -369q0 -198 -97.5 -367t-263.5 -267.5t-360 -98.5t-360 98.5t-263.5 267.5t-97.5 367zM144 696q0 -172 84 -319t228 -232t312 -85t312 84t228 230t84 318q0 173 -84 321.5t-227.5 235.5t-312.5 87 q-170 0 -313 -86t-227 -234t-84 -320zM432 320v32q24 2 49 4t35 12q12 12 12 56v576q0 62 -8 75q-16 17 -88 17v32h324q122 0 207 -48t85 -164q-6 -86 -72 -139q-64 -53 -148 -61v-4q34 -4 62.5 -28.5t51 -60.5t44.5 -84t34 -74q26 -55 38 -74t28 -25q16 -8 54 -10v-32h-100 q-52 0 -79.5 28t-65.5 116.5t-39 90.5q-10 28 -19.5 51t-23 42.5t-36.5 31.5t-60 12h-80v-276q0 -40 25 -52t73 -12v-32h-303zM637 727q134 0 217 33q82 34 82 148q0 91 -60 135.5t-151 44.5q-46 0 -67 -15t-21 -57v-289z" />
<glyph unicode="&#xb1;" horiz-adv-x="1229" d="M104 0v156h1032v-156h-1032zM104 600v156h441v296h155v-296h436v-156h-436v-297h-155v297h-441z" />
<glyph unicode="&#xb2;" horiz-adv-x="760" d="M41 572v84q298 171 438 360q61 82 61 184q0 75 -50 122q-50 46 -126 46q-72 0 -132 -31t-68 -94q6 -9 18 -27.5t19.5 -33.5t7.5 -29q0 -45 -78 -65q-34 0 -59.5 31.5t-28.5 76.5q4 13 4 33q26 96 118.5 149.5t206.5 53.5q116 0 208 -51.5t112 -141.5q6 -26 6 -53 q0 -150 -153 -276t-369 -242h328q64 2 95.5 16t47 36t53.5 91l48 -10l-64 -229h-643z" />
<glyph unicode="&#xb3;" horiz-adv-x="760" d="M20 744q6 84 88 84q68 0 68 -68q0 -11 -8 -39q0 -48 58 -80.5t138 -36.5q96 4 160 58t64 170q-6 176 -244 176q-12 0 -38 -2t-38 -2v57q34 0 56 -4q98 0 160 40q61 39 61 115q0 74 -49.5 117t-127.5 43q-62 0 -113 -28t-55 -68q6 -6 14.5 -34t8.5 -38q0 -30 -17.5 -39 t-53.5 -16q-80 8 -80 90q7 76 97 132.5t227 56.5q138 -3 217 -64.5t79 -143.5q0 -64 -55 -115t-162 -69q126 -12 195.5 -75.5t69.5 -149.5q0 -87 -59 -145t-145 -86t-172 -31q-118 3 -214 47t-122 116q0 14 -8 32z" />
<glyph unicode="&#xb4;" horiz-adv-x="696" d="M140 1204l208 148q76 60 136 59q36 0 55.5 -24t19.5 -60q0 -34 -27.5 -58.5t-79.5 -31.5l-300 -65z" />
<glyph unicode="&#xb5;" horiz-adv-x="1392" d="M41 884v64l311 43h68v-671q0 -66 5 -104.5t27 -69t72 -50.5q22 -9 76 -16q88 3 188.5 48.5t188.5 127.5v448q0 108 -46.5 144t-138.5 36v64l308 43h72v-755q0 -92 33 -134t135 -42v-60h-367v172q-86 -86 -198 -137t-230 -51q-63 0 -141 20q0 -50 10 -115l20 -130t10 -115 q0 -156 -120 -156q-122 0 -128 164q6 41 23 144.5t26.5 179.5t14.5 140q-24 32 -30.5 67t-6.5 106v411q0 114 -44 149q-43 35 -115 35h-23z" />
<glyph unicode="&#xb6;" horiz-adv-x="1229" d="M28 1008q8 56 9 76q16 116 96 185.5t190.5 98t231.5 28.5h629v-60q-63 -6 -96.5 -14t-55.5 -38q-28 -38 -28 -164v-840q0 -116 40 -168t140 -52v-60h-840v60q84 0 129.5 18t62.5 56t17 106v372q-234 0 -348 68q-70 44 -121.5 129t-55.5 199zM200 1040q0 -119 54 -202.5 t135.5 -125.5t163.5 -44v668q-172 0 -257 -86q-84 -86 -96 -210zM717 60h123v1276h-123v-1276z" />
<glyph unicode="&#xb7;" horiz-adv-x="655" d="M188 532q0 49 33.5 89.5t85.5 46.5q59 0 101 -33.5t44 -81.5q0 -74 -42 -111.5t-82 -41.5q-45 0 -91 34q-47 34 -49 98z" />
<glyph unicode="&#xb8;" horiz-adv-x="655" d="M135 -293q6 41 41 49q8 0 12 4q30 -5 49 -32t37 -51.5t50 -28.5q46 0 73 33t27 79q0 92 -121 100q-64 -10 -94 -20l47 160h64l-23 -88q37 4 51 4q102 0 141 -48q39 -50 39 -104q-6 -80 -59 -126t-133 -46q-67 0 -131.5 25.5t-64.5 79.5q3 0 -5 10z" />
<glyph unicode="&#xb9;" horiz-adv-x="760" d="M164 572v36q27 4 57.5 8t53.5 14t36 30q13 18 13 52v28v497q0 48 -15 68.5t-45 25.5t-100 5v36l244 39h48v-671q0 -92 40 -112q18 -7 36.5 -10t42 -5.5t41.5 -4.5v-36h-452z" />
<glyph unicode="&#xba;" horiz-adv-x="860" d="M116 1120q0 88 36 158t106.5 110t169.5 40q98 0 167 -39t105 -108q38 -69 40 -161q0 -143 -80 -226.5t-232 -84.5q-153 0 -232.5 88.5t-79.5 222.5zM140 620v68h572v-68h-572zM260 1116q0 -108 43 -176t129 -68q164 6 164 244q0 111 -41 179.5t-127 68.5t-127 -69 t-41 -179z" />
<glyph unicode="&#xbb;" horiz-adv-x="735" d="M104 215l128 321l-107 324l63 37l199 -361l-223 -352zM356 215l128 321l-107 324l63 37l201 -361l-225 -352z" />
<glyph unicode="&#xbc;" horiz-adv-x="1904" d="M164 559v37q42 6 83 14q41 6 56 18q21 16 21 72v27v497q0 48 -15 69t-45 25.5t-100 4.5v37l244 41h48v-674q0 -87 40 -107q18 -10 38 -14t42 -6t40 -4v-37h-452zM385 0l951 1396h120l-952 -1396h-119zM1012 280q34 40 129 155t163 201t156 200h123v-537h201l-29 -71h-172 q0 -22 -4 -40q2 -65 11 -94t38.5 -43t91.5 -14v-37h-393v37q85 1 109 27q17 20 20.5 50t3.5 114h-424zM1108 299h352v432z" />
<glyph unicode="&#xbd;" horiz-adv-x="1904" d="M164 559v37q42 6 83 14q41 6 56 18q21 16 21 72v27v497q0 48 -15 69t-45 25.5t-100 4.5v37l244 41h48v-674q0 -87 40 -107q18 -10 38 -14t42 -6t40 -4v-37h-452zM385 0l951 1396h120l-952 -1396h-119zM1104 0v84q166 94 268 179t172 181q60 84 60 184q0 74 -50 121 t-126 47q-69 0 -130.5 -30t-68.5 -90q3 -10 23 -42t20 -54q0 -28 -18 -38.5t-58 -21.5q-34 0 -59.5 31t-28.5 73q4 14 4 32q26 98 118 151q94 53 210 53q74 0 143 -22.5t116 -66t60 -103.5q7 -24 7 -52q0 -150 -158 -278t-369 -238h330q62 0 95 14t51.5 40t48.5 90l52 -12 l-67 -232h-645z" />
<glyph unicode="&#xbe;" horiz-adv-x="1904" d="M104 731q3 37 24.5 58.5t55.5 21.5q76 1 76 -67q0 -6 -8 -40q0 -46 57 -77.5t135 -34.5q96 4 160 56t64 167q-6 176 -236 176q-14 0 -41.5 -2t-42.5 -2v57q29 0 43 -4q106 3 171.5 42.5t65.5 113.5q0 72 -51 118t-125 46q-67 0 -118.5 -27t-51.5 -65q0 -12 7 -25 q14 -32 14 -51q0 -28 -19.5 -39t-55.5 -21q-72 8 -72 92q2 50 45 94.5t115 70.5t159 26q92 -2 159.5 -32t102.5 -78t35 -101q0 -64 -55 -114.5t-162 -65.5v-4q126 -12 195 -75t69 -149q0 -88 -57.5 -144t-141.5 -83t-172 -33q-121 3 -217.5 45.5t-118.5 114.5q-2 6 -4 18 t-4 17zM508 0l952 1396h119l-951 -1396h-120zM1052 280q226 264 447 556h125v-537h201l-29 -71h-172q0 -22 -4 -44q2 -65 11 -93t37.5 -41t90.5 -13v-37h-391v37q88 1 108 23q16 23 19.5 53.5t3.5 114.5h-424zM1149 299h350v432z" />
<glyph unicode="&#xbf;" horiz-adv-x="1104" d="M43 -56q7 110 53 185q46 80 131 120t181 80.5t128 94.5q14 24 22 51t11 56t4 63t3 66h96q0 -88 -4 -120q0 -154 -105 -241q-2 -2 -83 -57.5t-128 -102.5t-63 -102q-17 -70 -21 -113q3 -125 83.5 -200.5t203.5 -75.5q98 0 195.5 44t97.5 132q0 28 -21 73.5t-22 65.5 q4 5 4 13q4 38 35 61q32 23 72 23q58 0 93 -45t35 -103q0 -116 -80 -193.5t-196 -114t-228 -36.5q-124 0 -236 40t-185 125t-76 211zM488 864q0 74 42 111t82 37q50 0 94 -34t46 -98q0 -49 -33.5 -89.5t-85.5 -46.5q-56 0 -99.5 35t-45.5 85z" />
<glyph unicode="&#xc0;" horiz-adv-x="1392" d="M-76 0v60q63 8 108.5 34.5t79.5 75t60 119.5l436 1107h188l437 -1116q32 -78 60 -121t54.5 -62t56.5 -25l60 -12v-60h-575v64q159 12 159 120q-10 40 -22 71.5t-48 121t-54 143.5h-528q-6 -30 -36 -109t-46.5 -133t-16.5 -106q4 -46 43 -73t131 -39v-60h-547zM428 612 h461l-237 608zM483 1731q9 40 23.5 62t50.5 22q56 0 139 -55l211 -152l-10 -32l-301 65q-105 14 -113 90z" />
<glyph unicode="&#xc1;" horiz-adv-x="1392" d="M-76 0v60q63 8 108.5 34.5t79.5 75t60 119.5l436 1107h188l437 -1116q32 -78 60 -121t54.5 -62t56.5 -25l60 -12v-60h-575v64q159 12 159 120q-10 40 -22 71.5t-48 121t-54 143.5h-528q-6 -30 -36 -109t-46.5 -133t-16.5 -106q4 -46 43 -73t131 -39v-60h-547zM428 612 h461l-237 608zM488 1608l208 148q76 60 136 59q36 0 55.5 -24t19.5 -60q0 -34 -27.5 -58.5t-79.5 -31.5l-300 -65z" />
<glyph unicode="&#xc2;" horiz-adv-x="1392" d="M-76 0v60q63 8 108.5 34.5t79.5 75t60 119.5l436 1107h188l437 -1116q32 -78 60 -121t54.5 -62t56.5 -25l60 -12v-60h-575v64q159 12 159 120q-10 40 -22 71.5t-48 121t-54 143.5h-528q-6 -30 -36 -109t-46.5 -133t-16.5 -106q4 -46 43 -73t131 -39v-60h-547zM408 1616 l292 193l289 -193l-29 -48l-260 92l-268 -92zM428 612h461l-237 608z" />
<glyph unicode="&#xc3;" horiz-adv-x="1392" d="M-76 0v60q63 8 108.5 34.5t79.5 75t60 119.5l436 1107h188l437 -1116q32 -78 60 -121t54.5 -62t56.5 -25l60 -12v-60h-575v64q159 12 159 120q-10 40 -22 71.5t-48 121t-54 143.5h-528q-6 -30 -36 -109t-46.5 -133t-16.5 -106q4 -46 43 -73t131 -39v-60h-547zM383 1620 q57 136 185 136q42 0 95 -15l106 -30t95 -15q62 8 92 52l64 -17q-35 -125 -213 -155q-31 2 -57 9t-77 22t-85 22.5t-68 7.5q-44 0 -72 -37zM428 612h461l-237 608z" />
<glyph unicode="&#xc4;" horiz-adv-x="1392" d="M-76 0v60q63 8 108.5 34.5t79.5 75t60 119.5l436 1107h188l437 -1116q32 -78 60 -121t54.5 -62t56.5 -25l60 -12v-60h-575v64q159 12 159 120q-10 40 -22 71.5t-48 121t-54 143.5h-528q-6 -30 -36 -109t-46.5 -133t-16.5 -106q4 -46 43 -73t131 -39v-60h-547zM408 1660 q0 50 35 87t85 37t85.5 -37t35.5 -87q0 -48 -35.5 -84t-85.5 -36t-85 36t-35 84zM428 612h461l-237 608zM739 1656q0 52 37.5 88t87.5 36q48 0 84.5 -37t36.5 -87q0 -47 -36.5 -83.5t-84.5 -36.5q-50 0 -87.5 36t-37.5 84z" />
<glyph unicode="&#xc5;" horiz-adv-x="1392" d="M-76 0v60q63 8 108.5 34.5t79.5 75t60 119.5l436 1107h188l437 -1116q32 -78 60 -121t54.5 -62t56.5 -25l60 -12v-60h-575v64q159 12 159 120q-10 40 -22 71.5t-48 121t-54 143.5h-528q-6 -30 -36 -109t-46.5 -133t-16.5 -106q4 -46 43 -73t131 -39v-60h-547zM428 612 h461l-237 608zM508 1721q0 76 56 127t136 51q81 0 132 -56q52 -57 52 -139q-3 -77 -59.5 -128.5t-136.5 -51.5q-77 3 -128.5 60.5t-51.5 136.5zM581 1717q0 -49 31.5 -85.5t79.5 -39.5q50 0 85 34t35 82t-32.5 84t-79.5 40q-48 0 -83.5 -34t-35.5 -81z" />
<glyph unicode="&#xc6;" horiz-adv-x="2580" d="M-72 0v60q114 24 178 54q66 30 130 86q52 43 167 166.5t272 299.5t356 402q199 224 292 328h1014l155 -364l-72 -20q-68 106 -168 176t-220 102.5t-248 32.5q-114 -1 -156 -19q-68 -32 -68 -164v-348q92 0 124 -4q86 3 127 14.5t73 45.5q26 26 38 69t22 131h71v-620h-71 q-6 172 -72 224q-24 20 -53 30.5t-62.5 13.5t-78.5 4h-118l-4 -424q0 -24 -4 -44q4 -62 32 -98t120 -50q16 -2 53 -4t55 -4q238 8 380 96q168 100 300 303l72 -23l-176 -452h-1224v60q16 2 47 5t50 7.5t39 15.5q56 38 56 152v456h-516l-361 -403q-67 -93 -71 -145 q11 -30 29.5 -47t43.5 -25t58 -11t61 -5v-60h-672zM924 788h432v496z" />
<glyph unicode="&#xc7;" horiz-adv-x="1515" d="M88 688q2 143 54 276.5t146 239.5t222 167q126 61 270 61q235 0 408 -148l45 92h63l100 -492h-69q-58 125 -113.5 210.5t-114 135.5t-132 73.5t-175.5 23.5q-90 0 -172 -38t-145.5 -115.5t-100 -198.5t-38.5 -279q0 -132 30.5 -242t89.5 -191.5t142 -130.5 q82 -48 186 -60q41 -4 62 -4q96 0 189.5 35t175 105.5t141.5 168.5l88 -53q-218 -356 -625 -357q-77 1 -111 5q-122 16 -232.5 71t-197 147.5t-136.5 219t-50 278.5zM567 -293q6 41 41 49q8 0 12 4q30 -5 49 -32t37 -51.5t50 -28.5q46 0 73 33t27 79q0 92 -121 100 q-64 -10 -94 -20l47 160h64l-23 -88q37 4 51 4q102 0 141 -48q39 -50 39 -104q-6 -80 -59 -126t-133 -46q-67 0 -131.5 25.5t-64.5 79.5q3 0 -5 10z" />
<glyph unicode="&#xc8;" horiz-adv-x="1476" d="M64 0v60q20 2 45 5t44.5 7.5t35 13t26.5 22.5q33 40 33 120v880q0 72 -5 110t-28 66q-37 47 -151 47v65h1175l141 -368l-67 -24q-115 153 -272 228.5t-349 75.5q-92 0 -156 -20q-84 -32 -84 -148v-344q43 0 64 -4q130 4 188 13.5t92 42.5q46 48 64 200h72v-612h-72 q-11 158 -88 220q-58 44 -184 44h-136v-424q0 -80 29 -125t127 -59q22 0 88 -8q139 4 264.5 50t230.5 130t189 201l64 -29l-184 -436h-1196zM526 1731q9 40 23.5 62t50.5 22q56 0 139 -55l211 -152l-10 -32l-301 65q-105 14 -113 90z" />
<glyph unicode="&#xc9;" horiz-adv-x="1476" d="M64 0v60q20 2 45 5t44.5 7.5t35 13t26.5 22.5q33 40 33 120v880q0 72 -5 110t-28 66q-37 47 -151 47v65h1175l141 -368l-67 -24q-115 153 -272 228.5t-349 75.5q-92 0 -156 -20q-84 -32 -84 -148v-344q43 0 64 -4q130 4 188 13.5t92 42.5q46 48 64 200h72v-612h-72 q-11 158 -88 220q-58 44 -184 44h-136v-424q0 -80 29 -125t127 -59q22 0 88 -8q139 4 264.5 50t230.5 130t189 201l64 -29l-184 -436h-1196zM527 1608l208 148q76 60 136 59q36 0 55.5 -24t19.5 -60q0 -34 -27.5 -58.5t-79.5 -31.5l-300 -65z" />
<glyph unicode="&#xca;" horiz-adv-x="1476" d="M64 0v60q20 2 45 5t44.5 7.5t35 13t26.5 22.5q33 40 33 120v880q0 72 -5 110t-28 66q-37 47 -151 47v65h1175l141 -368l-67 -24q-115 153 -272 228.5t-349 75.5q-92 0 -156 -20q-84 -32 -84 -148v-344q43 0 64 -4q130 4 188 13.5t92 42.5q46 48 64 200h72v-612h-72 q-11 158 -88 220q-58 44 -184 44h-136v-424q0 -80 29 -125t127 -59q22 0 88 -8q139 4 264.5 50t230.5 130t189 201l64 -29l-184 -436h-1196zM447 1616l292 193l289 -193l-29 -48l-260 92l-268 -92z" />
<glyph unicode="&#xcb;" horiz-adv-x="1476" d="M64 0v60q20 2 45 5t44.5 7.5t35 13t26.5 22.5q33 40 33 120v880q0 72 -5 110t-28 66q-37 47 -151 47v65h1175l141 -368l-67 -24q-115 153 -272 228.5t-349 75.5q-92 0 -156 -20q-84 -32 -84 -148v-344q43 0 64 -4q130 4 188 13.5t92 42.5q46 48 64 200h72v-612h-72 q-11 158 -88 220q-58 44 -184 44h-136v-424q0 -80 29 -125t127 -59q22 0 88 -8q139 4 264.5 50t230.5 130t189 201l64 -29l-184 -436h-1196zM447 1660q0 50 35 87t85 37t85.5 -37t35.5 -87q0 -48 -35.5 -84t-85.5 -36t-85 36t-35 84zM778 1656q0 52 37.5 88t87.5 36 q48 0 84.5 -37t36.5 -87q0 -47 -36.5 -83.5t-84.5 -36.5q-50 0 -87.5 36t-37.5 84z" />
<glyph unicode="&#xcc;" horiz-adv-x="696" d="M64 0v64q92 0 132 37.5t40 121.5v932q0 92 -36 133q-37 42 -108 48h-28v60h552v-60h-20q-14 -2 -45 -8t-54 -22t-38 -52t-15 -99v-923q0 -96 43 -132t129 -36v-64h-552zM139 1731q9 40 23.5 62t50.5 22q56 0 139 -55l211 -152l-10 -32l-301 65q-105 14 -113 90z" />
<glyph unicode="&#xcd;" horiz-adv-x="696" d="M64 0v64q92 0 132 37.5t40 121.5v932q0 92 -36 133q-37 42 -108 48h-28v60h552v-60h-20q-14 -2 -45 -8t-54 -22t-38 -52t-15 -99v-923q0 -96 43 -132t129 -36v-64h-552zM140 1608l208 148q76 60 136 59q36 0 55.5 -24t19.5 -60q0 -34 -27.5 -58.5t-79.5 -31.5l-300 -65z " />
<glyph unicode="&#xce;" horiz-adv-x="696" d="M56 1616l292 193l289 -193l-29 -48l-260 92l-268 -92zM64 0v64q92 0 132 37.5t40 121.5v932q0 92 -36 133q-37 42 -108 48h-28v60h552v-60h-20q-14 -2 -45 -8t-54 -22t-38 -52t-15 -99v-923q0 -96 43 -132t129 -36v-64h-552z" />
<glyph unicode="&#xcf;" horiz-adv-x="696" d="M60 1660q0 50 35 87t85 37t85.5 -37t35.5 -87q0 -48 -35.5 -84t-85.5 -36t-85 36t-35 84zM64 0v64q92 0 132 37.5t40 121.5v932q0 92 -36 133q-37 42 -108 48h-28v60h552v-60h-20q-14 -2 -45 -8t-54 -22t-38 -52t-15 -99v-923q0 -96 43 -132t129 -36v-64h-552zM391 1656 q0 52 37.5 88t87.5 36q48 0 84.5 -37t36.5 -87q0 -47 -36.5 -83.5t-84.5 -36.5q-50 0 -87.5 36t-37.5 84z" />
<glyph unicode="&#xd0;" horiz-adv-x="1640" d="M64 0v60q64 10 93 18q29 6 52 30q39 40 39 132v468h-184v84h184l-4 300q0 134 -16 164q-36 76 -164 75v65h620q340 0 540 -104q84 -48 157 -143t116 -212t43 -225q-2 -168 -51 -299.5t-146 -224t-241 -140.5t-330 -48h-708zM448 256q10 -126 80 -148q82 -23 180 -28 q122 4 236 42q112 38 188 118q54 58 91 132.5t55 160t18 171.5q0 158 -52 293t-144 199q-162 117 -416 117q-98 0 -158 -24q-60 -23 -70 -105q-4 -46 -4 -119v-273h441v-84h-441v-415q0 -16 -4 -37z" />
<glyph unicode="&#xd1;" horiz-adv-x="1515" d="M51 0v60q96 0 140.5 38t44.5 130v888q0 100 -24 146t-58 56t-103 13v65h453l676 -1112v892q0 80 -41 117.5t-162 37.5v65h503v-65q-102 0 -143 -33.5t-41 -138.5v-1159h-180l-764 1243v-1020q0 -91 50 -127t151 -36v-60h-502zM442 1620q57 136 185 136q42 0 95 -15 l106 -30t95 -15q62 8 92 52l64 -17q-35 -125 -213 -155q-31 2 -57 9t-77 22t-85 22.5t-68 7.5q-44 0 -72 -37z" />
<glyph unicode="&#xd2;" horiz-adv-x="1640" d="M88 680q0 162 54 298.5t152 236.5t233 156q135 57 297 61q164 0 297.5 -56t228.5 -155.5t146.5 -227t55.5 -268.5q0 -134 -45 -268.5t-136 -246.5t-226 -179t-305 -68q-190 0 -334 67.5t-236 177.5t-136 234t-46 238zM336 692q0 -132 33 -245.5t98 -200t157 -134.5 q92 -46 204 -48q2 2 4 3t4 1q120 4 210 56t148 143t86 207t28 247q-4 174 -59 311.5t-163 216t-262 78.5q-100 0 -187 -35.5t-153.5 -111.5t-105.5 -199t-42 -289zM606 1731q9 40 23.5 62t50.5 22q56 0 139 -55l211 -152l-10 -32l-301 65q-105 14 -113 90z" />
<glyph unicode="&#xd3;" horiz-adv-x="1640" d="M88 680q0 162 54 298.5t152 236.5t233 156q135 57 297 61q164 0 297.5 -56t228.5 -155.5t146.5 -227t55.5 -268.5q0 -134 -45 -268.5t-136 -246.5t-226 -179t-305 -68q-190 0 -334 67.5t-236 177.5t-136 234t-46 238zM336 692q0 -132 33 -245.5t98 -200t157 -134.5 q92 -46 204 -48q2 2 4 3t4 1q120 4 210 56t148 143t86 207t28 247q-4 174 -59 311.5t-163 216t-262 78.5q-100 0 -187 -35.5t-153.5 -111.5t-105.5 -199t-42 -289zM611 1608l208 148q76 60 136 59q36 0 55.5 -24t19.5 -60q0 -34 -27.5 -58.5t-79.5 -31.5l-300 -65z" />
<glyph unicode="&#xd4;" horiz-adv-x="1640" d="M88 680q0 162 54 298.5t152 236.5t233 156q135 57 297 61q164 0 297.5 -56t228.5 -155.5t146.5 -227t55.5 -268.5q0 -134 -45 -268.5t-136 -246.5t-226 -179t-305 -68q-190 0 -334 67.5t-236 177.5t-136 234t-46 238zM336 692q0 -132 33 -245.5t98 -200t157 -134.5 q92 -46 204 -48q2 2 4 3t4 1q120 4 210 56t148 143t86 207t28 247q-4 174 -59 311.5t-163 216t-262 78.5q-100 0 -187 -35.5t-153.5 -111.5t-105.5 -199t-42 -289zM527 1616l292 193l289 -193l-29 -48l-260 92l-268 -92z" />
<glyph unicode="&#xd5;" horiz-adv-x="1640" d="M88 680q0 162 54 298.5t152 236.5t233 156q135 57 297 61q164 0 297.5 -56t228.5 -155.5t146.5 -227t55.5 -268.5q0 -134 -45 -268.5t-136 -246.5t-226 -179t-305 -68q-190 0 -334 67.5t-236 177.5t-136 234t-46 238zM336 692q0 -132 33 -245.5t98 -200t157 -134.5 q92 -46 204 -48q2 2 4 3t4 1q120 4 210 56t148 143t86 207t28 247q-4 174 -59 311.5t-163 216t-262 78.5q-100 0 -187 -35.5t-153.5 -111.5t-105.5 -199t-42 -289zM507 1620q57 136 185 136q42 0 95 -15l106 -30t95 -15q62 8 92 52l64 -17q-35 -125 -213 -155q-31 2 -57 9 t-77 22t-85 22.5t-68 7.5q-44 0 -72 -37z" />
<glyph unicode="&#xd6;" horiz-adv-x="1640" d="M88 680q0 162 54 298.5t152 236.5t233 156q135 57 297 61q164 0 297.5 -56t228.5 -155.5t146.5 -227t55.5 -268.5q0 -134 -45 -268.5t-136 -246.5t-226 -179t-305 -68q-190 0 -334 67.5t-236 177.5t-136 234t-46 238zM336 692q0 -132 33 -245.5t98 -200t157 -134.5 q92 -46 204 -48q2 2 4 3t4 1q120 4 210 56t148 143t86 207t28 247q-4 174 -59 311.5t-163 216t-262 78.5q-100 0 -187 -35.5t-153.5 -111.5t-105.5 -199t-42 -289zM531 1660q0 50 35 87t85 37t85.5 -37t35.5 -87q0 -48 -35.5 -84t-85.5 -36t-85 36t-35 84zM862 1656 q0 52 37.5 88t87.5 36q48 0 84.5 -37t36.5 -87q0 -47 -36.5 -83.5t-84.5 -36.5q-50 0 -87.5 36t-37.5 84z" />
<glyph unicode="&#xd8;" horiz-adv-x="1640" d="M84 688q6 226 131 428q58 92 153.5 163t214.5 110t245 39q236 0 415 -120l153 195h124l-199 -251q76 -70 128.5 -160t77.5 -190t25 -202q0 -176 -76 -344q-57 -114 -154.5 -202t-225.5 -137.5t-268 -49.5q-222 0 -428 125l-156 -200h-132l212 264q-119 119 -178 255.5 t-62 276.5zM332 688q6 -224 104 -395l713 899q-123 135 -325 135q-76 0 -150 -24t-133 -68.5t-93 -102.5q-110 -189 -116 -444zM492 213q56 -66 146 -106.5t186 -42.5q156 4 266 94t164 230t54 292q0 122 -26.5 238t-73.5 190z" />
<glyph unicode="&#xd9;" horiz-adv-x="1595" d="M51 1336v60h596v-60q-93 0 -137 -26.5t-55 -63t-15 -101.5q2 -2 3 -4.5t1 -4.5v-740q0 -162 103.5 -245t312.5 -83q218 0 302.5 108t84.5 295v678q0 70 -16 110t-59.5 58.5t-127.5 18.5v60h500v-60q-92 0 -136 -38t-44 -145v-793q0 -114 -57 -201t-177 -139 q-118 -51 -298 -57q-269 0 -430.5 103.5t-161.5 324.5v764q0 64 -18 101.5t-44 52t-65.5 20t-61.5 7.5zM587 1731q9 40 23.5 62t50.5 22q56 0 139 -55l211 -152l-10 -32l-301 65q-105 14 -113 90z" />
<glyph unicode="&#xda;" horiz-adv-x="1595" d="M51 1336v60h596v-60q-93 0 -137 -26.5t-55 -63t-15 -101.5q2 -2 3 -4.5t1 -4.5v-740q0 -162 103.5 -245t312.5 -83q218 0 302.5 108t84.5 295v678q0 70 -16 110t-59.5 58.5t-127.5 18.5v60h500v-60q-92 0 -136 -38t-44 -145v-793q0 -114 -57 -201t-177 -139 q-118 -51 -298 -57q-269 0 -430.5 103.5t-161.5 324.5v764q0 64 -18 101.5t-44 52t-65.5 20t-61.5 7.5zM592 1608l208 148q76 60 136 59q36 0 55.5 -24t19.5 -60q0 -34 -27.5 -58.5t-79.5 -31.5l-300 -65z" />
<glyph unicode="&#xdb;" horiz-adv-x="1595" d="M51 1336v60h596v-60q-93 0 -137 -26.5t-55 -63t-15 -101.5q2 -2 3 -4.5t1 -4.5v-740q0 -162 103.5 -245t312.5 -83q218 0 302.5 108t84.5 295v678q0 70 -16 110t-59.5 58.5t-127.5 18.5v60h500v-60q-92 0 -136 -38t-44 -145v-793q0 -114 -57 -201t-177 -139 q-118 -51 -298 -57q-269 0 -430.5 103.5t-161.5 324.5v764q0 64 -18 101.5t-44 52t-65.5 20t-61.5 7.5zM508 1616l292 193l289 -193l-29 -48l-260 92l-268 -92z" />
<glyph unicode="&#xdc;" horiz-adv-x="1595" d="M51 1336v60h596v-60q-93 0 -137 -26.5t-55 -63t-15 -101.5q2 -2 3 -4.5t1 -4.5v-740q0 -162 103.5 -245t312.5 -83q218 0 302.5 108t84.5 295v678q0 70 -16 110t-59.5 58.5t-127.5 18.5v60h500v-60q-92 0 -136 -38t-44 -145v-793q0 -114 -57 -201t-177 -139 q-118 -51 -298 -57q-269 0 -430.5 103.5t-161.5 324.5v764q0 64 -18 101.5t-44 52t-65.5 20t-61.5 7.5zM508 1660q0 50 35 87t85 37t85.5 -37t35.5 -87q0 -48 -35.5 -84t-85.5 -36t-85 36t-35 84zM839 1656q0 52 37.5 88t87.5 36q48 0 84.5 -37t36.5 -87q0 -47 -36.5 -83.5 t-84.5 -36.5q-50 0 -87.5 36t-37.5 84z" />
<glyph unicode="&#xdd;" horiz-adv-x="1313" d="M-60 1336v60h580v-60q-142 -20 -156 -68q0 -12 -4 -21q4 -27 60 -123l264 -416l284 445q28 44 28 86q0 46 -38 64.5t-102 32.5v60h508v-60q-97 -16 -161 -64t-128 -148l-348 -548v-292q0 -24 -2 -44q4 -106 47 -140q48 -36 127 -40q16 4 41 4v-64h-641v64q24 0 37 -4 q99 6 133 36q51 36 51 164v324l-360 575q-46 79 -89 119t-131 58zM447 1608l208 148q76 60 136 59q36 0 55.5 -24t19.5 -60q0 -34 -27.5 -58.5t-79.5 -31.5l-300 -65z" />
<glyph unicode="&#xde;" d="M64 0v64q108 0 144 44t36 152v895q0 88 -32 128.5t-108 47.5l-40 5v60h596v-60l-68 -5q-57 -7 -87 -26t-43.5 -63t-13.5 -130h256q126 0 239.5 -26t199 -96t109.5 -189q4 -25 4 -80q0 -110 -57 -200t-167 -141.5t-264 -51.5h-320v-88q0 -118 68 -156q38 -20 144 -20v-64 h-596zM448 404h277q152 0 237.5 86t85.5 254q-4 108 -53.5 173t-123 90t-154.5 25h-269v-628z" />
<glyph unicode="&#xdf;" horiz-adv-x="1351" d="M-223 -184l35 84q92 -24 160 -25q93 0 155 52.5t91.5 136.5t29.5 176v649h-123l23 84h100q16 114 78.5 218.5t180 172.5t281.5 68q63 -3 138.5 -28t131.5 -82q56 -56 58 -146q0 -83 -45 -133.5t-123 -90.5q-10 -5 -51 -20.5t-59.5 -27.5t-18.5 -32q8 -36 129 -84 q106 -42 173.5 -94t101 -123t33.5 -167q-6 -90 -51.5 -168t-119 -134.5t-168.5 -87t-196 -30.5q-143 0 -277 59l52 82q90 -42 188 -49q90 6 173 51t135 121t52 168q0 87 -55 144.5t-139 99.5t-170 84q-88 45 -88 100q2 45 41 70.5t123 58.5q196 65 196 195q0 80 -60 126 t-140 46q-88 0 -168 -60q-49 -40 -78.5 -92.5t-42 -110t-16 -110.5t-3.5 -127v-524q0 -140 -31 -232t-80 -146t-118 -98q-91 -64 -239 -63q-131 1 -199 39z" />
<glyph unicode="&#xe0;" horiz-adv-x="1188" d="M72 192q0 348 700 388v84q0 96 -12 138t-52 74q-66 52 -180 52q-78 0 -145 -29t-67 -98q0 -125 -101 -133q-34 0 -64.5 26t-34.5 66q12 89 86 144.5t173 79.5t193 24q97 0 208 -31q75 -32 114.5 -61.5t58.5 -78.5t19 -133v-420q0 -202 107 -208q55 6 89 32l40 -57 q-29 -28 -87.5 -47.5t-120.5 -19.5q-78 0 -139 36t-85 111q-172 -147 -376 -147q-127 0 -218.5 56t-105.5 152zM276 248q3 -58 40.5 -103t103.5 -57q16 0 49 -8q137 6 303 139v293q-128 -12 -226 -33t-178 -77q-82 -55 -92 -154zM383 1327q9 40 23.5 62t50.5 22 q56 0 139 -55l211 -152l-10 -32l-301 65q-105 14 -113 90z" />
<glyph unicode="&#xe1;" horiz-adv-x="1188" d="M72 192q0 348 700 388v84q0 96 -12 138t-52 74q-66 52 -180 52q-78 0 -145 -29t-67 -98q0 -125 -101 -133q-34 0 -64.5 26t-34.5 66q12 89 86 144.5t173 79.5t193 24q97 0 208 -31q75 -32 114.5 -61.5t58.5 -78.5t19 -133v-420q0 -202 107 -208q55 6 89 32l40 -57 q-29 -28 -87.5 -47.5t-120.5 -19.5q-78 0 -139 36t-85 111q-172 -147 -376 -147q-127 0 -218.5 56t-105.5 152zM276 248q3 -58 40.5 -103t103.5 -57q16 0 49 -8q137 6 303 139v293q-128 -12 -226 -33t-178 -77q-82 -55 -92 -154zM384 1204l208 148q76 60 136 59 q36 0 55.5 -24t19.5 -60q0 -34 -27.5 -58.5t-79.5 -31.5l-300 -65z" />
<glyph unicode="&#xe2;" horiz-adv-x="1188" d="M72 192q0 348 700 388v84q0 96 -12 138t-52 74q-66 52 -180 52q-78 0 -145 -29t-67 -98q0 -125 -101 -133q-34 0 -64.5 26t-34.5 66q12 89 86 144.5t173 79.5t193 24q97 0 208 -31q75 -32 114.5 -61.5t58.5 -78.5t19 -133v-420q0 -202 107 -208q55 6 89 32l40 -57 q-29 -28 -87.5 -47.5t-120.5 -19.5q-78 0 -139 36t-85 111q-172 -147 -376 -147q-127 0 -218.5 56t-105.5 152zM276 248q3 -58 40.5 -103t103.5 -57q16 0 49 -8q137 6 303 139v293q-128 -12 -226 -33t-178 -77q-82 -55 -92 -154zM304 1212l292 193l289 -193l-29 -48l-260 92 l-268 -92z" />
<glyph unicode="&#xe3;" horiz-adv-x="1188" d="M72 192q0 348 700 388v84q0 96 -12 138t-52 74q-66 52 -180 52q-78 0 -145 -29t-67 -98q0 -125 -101 -133q-34 0 -64.5 26t-34.5 66q12 89 86 144.5t173 79.5t193 24q97 0 208 -31q75 -32 114.5 -61.5t58.5 -78.5t19 -133v-420q0 -202 107 -208q55 6 89 32l40 -57 q-29 -28 -87.5 -47.5t-120.5 -19.5q-78 0 -139 36t-85 111q-172 -147 -376 -147q-127 0 -218.5 56t-105.5 152zM276 248q3 -58 40.5 -103t103.5 -57q16 0 49 -8q137 6 303 139v293q-128 -12 -226 -33t-178 -77q-82 -55 -92 -154zM279 1216q57 136 185 136q42 0 95 -15 l106 -30t95 -15q62 8 92 52l64 -17q-35 -125 -213 -155q-31 2 -57 9t-77 22t-85 22.5t-68 7.5q-44 0 -72 -37z" />
<glyph unicode="&#xe4;" horiz-adv-x="1188" d="M72 192q0 348 700 388v84q0 96 -12 138t-52 74q-66 52 -180 52q-78 0 -145 -29t-67 -98q0 -125 -101 -133q-34 0 -64.5 26t-34.5 66q12 89 86 144.5t173 79.5t193 24q97 0 208 -31q75 -32 114.5 -61.5t58.5 -78.5t19 -133v-420q0 -202 107 -208q55 6 89 32l40 -57 q-29 -28 -87.5 -47.5t-120.5 -19.5q-78 0 -139 36t-85 111q-172 -147 -376 -147q-127 0 -218.5 56t-105.5 152zM276 248q3 -58 40.5 -103t103.5 -57q16 0 49 -8q137 6 303 139v293q-128 -12 -226 -33t-178 -77q-82 -55 -92 -154zM304 1256q0 50 35 87t85 37t85.5 -37 t35.5 -87q0 -48 -35.5 -84t-85.5 -36t-85 36t-35 84zM635 1252q0 52 37.5 88t87.5 36q48 0 84.5 -37t36.5 -87q0 -47 -36.5 -83.5t-84.5 -36.5q-50 0 -87.5 36t-37.5 84z" />
<glyph unicode="&#xe5;" horiz-adv-x="1188" d="M72 192q0 348 700 388v84q0 96 -12 138t-52 74q-66 52 -180 52q-78 0 -145 -29t-67 -98q0 -125 -101 -133q-34 0 -64.5 26t-34.5 66q12 89 86 144.5t173 79.5t193 24q97 0 208 -31q75 -32 114.5 -61.5t58.5 -78.5t19 -133v-420q0 -202 107 -208q55 6 89 32l40 -57 q-29 -28 -87.5 -47.5t-120.5 -19.5q-78 0 -139 36t-85 111q-172 -147 -376 -147q-127 0 -218.5 56t-105.5 152zM276 248q3 -58 40.5 -103t103.5 -57q16 0 49 -8q137 6 303 139v293q-128 -12 -226 -33t-178 -77q-82 -55 -92 -154zM408 1317q0 76 56 127t136 51q81 0 132 -56 q52 -57 52 -139q-3 -77 -59.5 -128.5t-136.5 -51.5q-77 3 -128.5 60.5t-51.5 136.5zM481 1313q0 -49 31.5 -85.5t79.5 -39.5q50 0 85 34t35 82t-32.5 84t-79.5 40q-48 0 -83.5 -34t-35.5 -81z" />
<glyph unicode="&#xe6;" horiz-adv-x="1759" d="M68 232q3 98 69.5 172t161.5 116q103 43 198.5 57.5t262.5 26.5q0 60 -4 88q0 83 -12.5 129.5t-61 76.5t-150.5 38h-16q-82 0 -137 -34t-55 -106q0 -114 -109 -124q-1 3 -3 3.5t-3 0.5q-34 4 -57.5 24t-26.5 56q42 132 152.5 192t262.5 64q262 0 368 -132 q138 132 348 132q38 0 104 -8q346 -76 346 -432q0 -33 -2 -52h-731q0 -206 72.5 -316t230.5 -132q14 -2 43 -2q97 0 188 56t129 142l64 -36q-36 -78 -102 -135t-151 -85t-175 -28t-176 29t-156.5 85t-111.5 134q-34 -84 -104 -140t-159 -82t-180 -26q-103 0 -182.5 37.5 t-110.5 113.5q-18 53 -24 97zM256 260q18 -167 200 -180q88 3 166 48t109 120q33 78 33 196q0 16 -2 41.5t-2 34.5q-170 0 -282 -36t-166 -95t-56 -129zM973 604h526v33q0 80 -29 148.5t-87.5 109.5t-139.5 41q-66 0 -123 -28q-57 -26 -88 -76q-46 -64 -59 -228z" />
<glyph unicode="&#xe7;" horiz-adv-x="1065" d="M76 496q0 181 72 296.5t185 167.5t239 52q84 0 183 -30t167.5 -92t68.5 -150q0 -48 -28.5 -78t-73.5 -38q-40 0 -70.5 29t-34.5 82q2 10 4 27.5t4 25.5q0 64 -59.5 104t-144.5 40q-260 0 -281 -432q4 -128 42.5 -230t115.5 -154q74 -50 176 -56q189 7 319 192l60 -39 q-68 -114 -182 -172.5t-250 -58.5q-36 0 -52 2q-126 12 -229 68t-167 167t-64 277zM344 -293q6 41 41 49q8 0 12 4q30 -5 49 -32t37 -51.5t50 -28.5q46 0 73 33t27 79q0 92 -121 100q-64 -10 -94 -20l47 160h64l-23 -88q37 4 51 4q102 0 141 -48q39 -50 39 -104 q-6 -80 -59 -126t-133 -46q-67 0 -131.5 25.5t-64.5 79.5q3 0 -5 10z" />
<glyph unicode="&#xe8;" horiz-adv-x="1065" d="M72 500q7 139 63 268q38 77 104.5 132.5t150 83.5t169.5 28q117 0 220 -48t166 -143t63 -229h-715q-4 -58 -4 -80q0 -144 48 -242t126.5 -147t169.5 -51q99 4 183 54t124 138l64 -36q-48 -118 -169 -181t-263 -63q-139 0 -252.5 68t-178.5 187t-69 261zM297 676h491 q0 110 -63 181t-170 71q-96 0 -170 -68t-88 -184zM319 1327q9 40 23.5 62t50.5 22q56 0 139 -55l211 -152l-10 -32l-301 65q-105 14 -113 90z" />
<glyph unicode="&#xe9;" horiz-adv-x="1065" d="M72 500q7 139 63 268q38 77 104.5 132.5t150 83.5t169.5 28q117 0 220 -48t166 -143t63 -229h-715q-4 -58 -4 -80q0 -144 48 -242t126.5 -147t169.5 -51q99 4 183 54t124 138l64 -36q-48 -118 -169 -181t-263 -63q-139 0 -252.5 68t-178.5 187t-69 261zM297 676h491 q0 110 -63 181t-170 71q-96 0 -170 -68t-88 -184zM324 1204l208 148q76 60 136 59q36 0 55.5 -24t19.5 -60q0 -34 -27.5 -58.5t-79.5 -31.5l-300 -65z" />
<glyph unicode="&#xea;" horiz-adv-x="1065" d="M72 500q7 139 63 268q38 77 104.5 132.5t150 83.5t169.5 28q117 0 220 -48t166 -143t63 -229h-715q-4 -58 -4 -80q0 -144 48 -242t126.5 -147t169.5 -51q99 4 183 54t124 138l64 -36q-48 -118 -169 -181t-263 -63q-139 0 -252.5 68t-178.5 187t-69 261zM240 1212l292 193 l289 -193l-29 -48l-260 92l-268 -92zM297 676h491q0 110 -63 181t-170 71q-96 0 -170 -68t-88 -184z" />
<glyph unicode="&#xeb;" horiz-adv-x="1065" d="M72 500q7 139 63 268q38 77 104.5 132.5t150 83.5t169.5 28q117 0 220 -48t166 -143t63 -229h-715q-4 -58 -4 -80q0 -144 48 -242t126.5 -147t169.5 -51q99 4 183 54t124 138l64 -36q-48 -118 -169 -181t-263 -63q-139 0 -252.5 68t-178.5 187t-69 261zM244 1256 q0 50 35 87t85 37t85.5 -37t35.5 -87q0 -48 -35.5 -84t-85.5 -36t-85 36t-35 84zM297 676h491q0 110 -63 181t-170 71q-96 0 -170 -68t-88 -184zM575 1252q0 52 37.5 88t87.5 36q48 0 84.5 -37t36.5 -87q0 -47 -36.5 -83.5t-84.5 -36.5q-50 0 -87.5 36t-37.5 84z" />
<glyph unicode="&#xec;" horiz-adv-x="616" d="M41 884v64q50 6 162 22q111 16 153 21h64v-723q0 -70 11.5 -114t49 -69t111.5 -25v-60h-545v60q64 2 100.5 16t54.5 52q19 38 21 108v432q0 72 -5.5 104t-25.5 64q-34 48 -151 48zM94 1327q9 40 23.5 62t50.5 22q56 0 139 -55l211 -152l-10 -32l-301 65q-105 14 -113 90z " />
<glyph unicode="&#xed;" horiz-adv-x="616" d="M41 884v64q50 6 162 22q111 16 153 21h64v-723q0 -70 11.5 -114t49 -69t111.5 -25v-60h-545v60q64 2 100.5 16t54.5 52q19 38 21 108v432q0 72 -5.5 104t-25.5 64q-34 48 -151 48zM99 1204l208 148q76 60 136 59q36 0 55.5 -24t19.5 -60q0 -34 -27.5 -58.5t-79.5 -31.5 l-300 -65z" />
<glyph unicode="&#xee;" horiz-adv-x="616" d="M15 1212l292 193l289 -193l-29 -48l-260 92l-268 -92zM41 884v64q50 6 162 22q111 16 153 21h64v-723q0 -70 11.5 -114t49 -69t111.5 -25v-60h-545v60q64 2 100.5 16t54.5 52q19 38 21 108v432q0 72 -5.5 104t-25.5 64q-34 48 -151 48z" />
<glyph unicode="&#xef;" horiz-adv-x="616" d="M15 1256q0 50 35 87t85 37t85.5 -37t35.5 -87q0 -48 -35.5 -84t-85.5 -36t-85 36t-35 84zM41 884v64q50 6 162 22q111 16 153 21h64v-723q0 -70 11.5 -114t49 -69t111.5 -25v-60h-545v60q64 2 100.5 16t54.5 52q19 38 21 108v432q0 72 -5.5 104t-25.5 64q-34 48 -151 48z M346 1252q0 52 37.5 88t87.5 36q48 0 84.5 -37t36.5 -87q0 -47 -36.5 -83.5t-84.5 -36.5q-50 0 -87.5 36t-37.5 84z" />
<glyph unicode="&#xf0;" horiz-adv-x="1149" d="M72 484q8 164 76 304q57 108 165.5 166t254.5 58q72 0 144 -25q-79 131 -159 217l-389 -156l-39 72l367 152q-92 104 -203 196l119 35q140 -91 229 -176l346 141l41 -72l-320 -128q108 -100 193 -224.5t134 -265t49 -282.5q0 -156 -68 -277q-64 -112 -176 -173 q-112 -62 -264 -62q-246 0 -384 164q-110 126 -116 336zM293 536q0 -132 19.5 -230t73.5 -162q54 -62 154 -76q14 -2 44 -2q131 0 201 100q69 100 79 266q0 8 1 22t1 21q0 116 -35 245t-71 164q-48 44 -156 44q-112 0 -164 -39q-148 -105 -147 -353z" />
<glyph unicode="&#xf1;" horiz-adv-x="1351" d="M41 884v64q50 6 162 22q111 16 153 21h64v-159q190 176 420 176q141 0 230 -69t89 -187v-496q0 -54 9.5 -95t47.5 -71t115 -30v-60h-547v60q93 4 134.5 38t41.5 142v468q0 92 -48 143.5t-136 51.5q-160 1 -356 -163v-472q0 -104 33 -156t139 -52v-60h-545v60 q64 2 100.5 16t54.5 52q19 38 21 108v432q0 72 -5.5 104t-25.5 64q-34 48 -151 48zM358 1216q57 136 185 136q42 0 95 -15l106 -30t95 -15q62 8 92 52l64 -17q-35 -125 -213 -155q-31 2 -57 9t-77 22t-85 22.5t-68 7.5q-44 0 -72 -37z" />
<glyph unicode="&#xf2;" horiz-adv-x="1149" d="M76 516q8 148 66 259.5t169 174t269 62.5q116 0 208 -39t156 -108t98 -159.5t38 -193.5q0 -146 -55 -266t-169 -191t-280 -71q-152 0 -265.5 65t-174 186t-60.5 281zM289 500q8 -187 66.5 -307.5t224.5 -128.5q102 0 165 56.5t91 153.5q28 98 28 222q0 167 -67 301.5 t-221 134.5q-116 -2 -180 -80t-85.5 -175.5t-21.5 -176.5zM363 1327q9 40 23.5 62t50.5 22q56 0 139 -55l211 -152l-10 -32l-301 65q-105 14 -113 90z" />
<glyph unicode="&#xf3;" horiz-adv-x="1149" d="M76 516q8 148 66 259.5t169 174t269 62.5q116 0 208 -39t156 -108t98 -159.5t38 -193.5q0 -146 -55 -266t-169 -191t-280 -71q-152 0 -265.5 65t-174 186t-60.5 281zM289 500q8 -187 66.5 -307.5t224.5 -128.5q102 0 165 56.5t91 153.5q28 98 28 222q0 167 -67 301.5 t-221 134.5q-116 -2 -180 -80t-85.5 -175.5t-21.5 -176.5zM363 1204l208 148q76 60 136 59q36 0 55.5 -24t19.5 -60q0 -34 -27.5 -58.5t-79.5 -31.5l-300 -65z" />
<glyph unicode="&#xf4;" horiz-adv-x="1149" d="M76 516q8 148 66 259.5t169 174t269 62.5q116 0 208 -39t156 -108t98 -159.5t38 -193.5q0 -146 -55 -266t-169 -191t-280 -71q-152 0 -265.5 65t-174 186t-60.5 281zM280 1212l292 193l289 -193l-29 -48l-260 92l-268 -92zM289 500q8 -187 66.5 -307.5t224.5 -128.5 q102 0 165 56.5t91 153.5q28 98 28 222q0 167 -67 301.5t-221 134.5q-116 -2 -180 -80t-85.5 -175.5t-21.5 -176.5z" />
<glyph unicode="&#xf5;" horiz-adv-x="1149" d="M76 516q8 148 66 259.5t169 174t269 62.5q116 0 208 -39t156 -108t98 -159.5t38 -193.5q0 -146 -55 -266t-169 -191t-280 -71q-152 0 -265.5 65t-174 186t-60.5 281zM260 1216q57 136 185 136q42 0 95 -15l106 -30t95 -15q62 8 92 52l64 -17q-35 -125 -213 -155 q-31 2 -57 9t-77 22t-85 22.5t-68 7.5q-44 0 -72 -37zM289 500q8 -187 66.5 -307.5t224.5 -128.5q102 0 165 56.5t91 153.5q28 98 28 222q0 167 -67 301.5t-221 134.5q-116 -2 -180 -80t-85.5 -175.5t-21.5 -176.5z" />
<glyph unicode="&#xf6;" horiz-adv-x="1149" d="M76 516q8 148 66 259.5t169 174t269 62.5q116 0 208 -39t156 -108t98 -159.5t38 -193.5q0 -146 -55 -266t-169 -191t-280 -71q-152 0 -265.5 65t-174 186t-60.5 281zM284 1256q0 50 35 87t85 37t85.5 -37t35.5 -87q0 -48 -35.5 -84t-85.5 -36t-85 36t-35 84zM289 500 q8 -187 66.5 -307.5t224.5 -128.5q102 0 165 56.5t91 153.5q28 98 28 222q0 167 -67 301.5t-221 134.5q-116 -2 -180 -80t-85.5 -175.5t-21.5 -176.5zM615 1252q0 52 37.5 88t87.5 36q48 0 84.5 -37t36.5 -87q0 -47 -36.5 -83.5t-84.5 -36.5q-50 0 -87.5 36t-37.5 84z" />
<glyph unicode="&#xf8;" horiz-adv-x="1149" d="M76 475q6 155 53 269q48 124 168.5 196t270.5 72q128 0 256 -56l88 140h96l-115 -180q76 -49 129 -167.5t53 -260.5q-1 -82 -23 -176q-26 -94 -93 -169.5t-163 -117t-208 -41.5q-130 0 -252 53l-76 -121h-100l104 164q-181 136 -188 395zM284 496q8 -164 60 -287l412 643 q-76 76 -184 76q-150 0 -214 -129t-74 -303zM404 140q70 -74 176 -80q102 4 166.5 66t91 154t26.5 191q0 91 -14.5 177t-40.5 132z" />
<glyph unicode="&#xf9;" horiz-adv-x="1392" d="M41 884v64l311 43h68v-671q0 -66 5 -104.5t27 -69t72 -50.5q22 -9 76 -16q88 3 188.5 48.5t188.5 127.5v448q0 108 -46.5 144t-138.5 36v64l308 43h72v-755q0 -92 33 -134t135 -42v-60h-367v172q-82 -85 -198.5 -136.5t-254.5 -51.5q-156 10 -226.5 80t-70.5 225v411 q0 114 -44 149q-43 35 -115 35h-23zM487 1327q9 40 23.5 62t50.5 22q56 0 139 -55l211 -152l-10 -32l-301 65q-105 14 -113 90z" />
<glyph unicode="&#xfa;" horiz-adv-x="1392" d="M41 884v64l311 43h68v-671q0 -66 5 -104.5t27 -69t72 -50.5q22 -9 76 -16q88 3 188.5 48.5t188.5 127.5v448q0 108 -46.5 144t-138.5 36v64l308 43h72v-755q0 -92 33 -134t135 -42v-60h-367v172q-82 -85 -198.5 -136.5t-254.5 -51.5q-156 10 -226.5 80t-70.5 225v411 q0 114 -44 149q-43 35 -115 35h-23zM488 1204l208 148q76 60 136 59q36 0 55.5 -24t19.5 -60q0 -34 -27.5 -58.5t-79.5 -31.5l-300 -65z" />
<glyph unicode="&#xfb;" horiz-adv-x="1392" d="M41 884v64l311 43h68v-671q0 -66 5 -104.5t27 -69t72 -50.5q22 -9 76 -16q88 3 188.5 48.5t188.5 127.5v448q0 108 -46.5 144t-138.5 36v64l308 43h72v-755q0 -92 33 -134t135 -42v-60h-367v172q-82 -85 -198.5 -136.5t-254.5 -51.5q-156 10 -226.5 80t-70.5 225v411 q0 114 -44 149q-43 35 -115 35h-23zM404 1212l292 193l289 -193l-29 -48l-260 92l-268 -92z" />
<glyph unicode="&#xfc;" horiz-adv-x="1392" d="M41 884v64l311 43h68v-671q0 -66 5 -104.5t27 -69t72 -50.5q22 -9 76 -16q88 3 188.5 48.5t188.5 127.5v448q0 108 -46.5 144t-138.5 36v64l308 43h72v-755q0 -92 33 -134t135 -42v-60h-367v172q-82 -85 -198.5 -136.5t-254.5 -51.5q-156 10 -226.5 80t-70.5 225v411 q0 114 -44 149q-43 35 -115 35h-23zM408 1256q0 50 35 87t85 37t85.5 -37t35.5 -87q0 -48 -35.5 -84t-85.5 -36t-85 36t-35 84zM739 1252q0 52 37.5 88t87.5 36q48 0 84.5 -37t36.5 -87q0 -47 -36.5 -83.5t-84.5 -36.5q-50 0 -87.5 36t-37.5 84z" />
<glyph unicode="&#xfd;" horiz-adv-x="1104" d="M-47 932v59h487v-59q-110 0 -116 -72q2 -25 27 -84l30 -72l207 -512l184 484q37 106 37 148q0 53 -31.5 77.5t-105.5 30.5v59h452v-59q-90 -14 -134 -57t-74 -115l-371 -891q-137 -348 -401 -348q-70 0 -123.5 30.5t-53.5 96.5q1 86 101 100q26 -4 45 -18t47 -40t49 -38 t47 -12q52 0 96 48q62 78 132 256l-332 804q-36 84 -59 117t-50.5 45t-89.5 22zM345 1204l208 148q76 60 136 59q36 0 55.5 -24t19.5 -60q0 -34 -27.5 -58.5t-79.5 -31.5l-300 -65z" />
<glyph unicode="&#xfe;" d="M41 1340v65q189 15 295 63h84v-608q132 146 307 152q92 0 174.5 -29t149.5 -91t106 -157t39 -223q0 -110 -34 -205t-97 -168t-152 -114t-196 -41q-157 0 -297 100v-276q0 -78 10 -121t52 -69t134 -26v-61h-569v61q65 2 101 17t54 53q19 38 21 110v1364q0 68 -5 92 q-6 25 -26 56q-31 50 -151 56zM420 188q38 -44 109 -74.5t147 -33.5q126 4 213 95t94 290q0 230 -80 339q-81 108 -207 108q-78 0 -153 -41t-123 -111v-572z" />
<glyph unicode="&#xff;" horiz-adv-x="1104" d="M-47 932v59h487v-59q-110 0 -116 -72q2 -25 27 -84l30 -72l207 -512l184 484q37 106 37 148q0 53 -31.5 77.5t-105.5 30.5v59h452v-59q-90 -14 -134 -57t-74 -115l-371 -891q-137 -348 -401 -348q-70 0 -123.5 30.5t-53.5 96.5q1 86 101 100q26 -4 45 -18t47 -40t49 -38 t47 -12q52 0 96 48q62 78 132 256l-332 804q-36 84 -59 117t-50.5 45t-89.5 22zM265 1256q0 50 35 87t85 37t85.5 -37t35.5 -87q0 -48 -35.5 -84t-85.5 -36t-85 36t-35 84zM596 1252q0 52 37.5 88t87.5 36q48 0 84.5 -37t36.5 -87q0 -47 -36.5 -83.5t-84.5 -36.5 q-50 0 -87.5 36t-37.5 84z" />
<glyph unicode="&#x152;" horiz-adv-x="2539" d="M88 692q6 224 92 375q46 84 123 163.5t202 138.5t287 63q149 0 280.5 -55t223.5 -140v159h961l163 -356l-73 -24q-74 100 -167.5 169.5t-204 105.5t-234.5 36q-119 -1 -177 -19q-76 -24 -75 -149v-344q138 0 207.5 6.5t108 31.5t55 74t24.5 148h76v-631h-76 q-3 104 -26.5 162.5t-68.5 84t-109 31t-191 5.5l-4 -463q0 -92 24.5 -136t114.5 -56q18 -2 55 -4t57 -4q266 8 416 116q48 34 88 78t97 115t83 102l68 -31l-180 -444h-1012v176q-72 -88 -210 -148.5t-298 -60.5q-124 0 -246 46.5t-226 146.5q-220 210 -228 532zM336 692 q12 -298 139.5 -463t335.5 -165q135 0 243 76t169 220t61 336q-2 140 -35 255.5t-96 200t-151 130t-197 45.5q-218 -8 -343.5 -168.5t-125.5 -466.5z" />
<glyph unicode="&#x153;" horiz-adv-x="1843" d="M76 479q0 118 34.5 215.5t99 168t156.5 109.5q92 38 202 40q80 0 157 -22t140 -63t108 -99q66 90 169.5 137t217.5 47q84 0 161 -26t139 -78.5t98 -130.5t38 -177h-725q0 -140 8.5 -222.5t38.5 -143t90 -105.5q85 -63 197 -69q97 3 185 55.5t138 148.5l68 -32 q-39 -78 -104.5 -134t-148 -85t-171.5 -29q-74 0 -147.5 21t-138 65t-109.5 106q-42 -56 -104.5 -100t-139.5 -68t-157 -24q-222 0 -359.5 131t-140.5 364zM289 475q6 -206 74.5 -306.5t216.5 -100.5q278 6 284 432q0 211 -67 319.5t-221 108.5q-286 0 -287 -453zM1080 668 h507q0 116 -63.5 188t-171.5 72q-114 0 -185 -68t-87 -192z" />
<glyph unicode="&#x2c6;" horiz-adv-x="860" d="M140 1212l292 193l289 -193l-29 -48l-260 92l-268 -92z" />
<glyph unicode="&#x2dc;" horiz-adv-x="899" d="M135 1216q57 136 185 136q42 0 95 -15l106 -30t95 -15q62 8 92 52l64 -17q-35 -125 -213 -155q-31 2 -57 9t-77 22t-85 22.5t-68 7.5q-44 0 -72 -37z" />
<glyph unicode="&#x2000;" horiz-adv-x="949" />
<glyph unicode="&#x2001;" horiz-adv-x="1899" />
<glyph unicode="&#x2002;" horiz-adv-x="949" />
<glyph unicode="&#x2003;" horiz-adv-x="1899" />
<glyph unicode="&#x2004;" horiz-adv-x="633" />
<glyph unicode="&#x2005;" horiz-adv-x="474" />
<glyph unicode="&#x2006;" horiz-adv-x="316" />
<glyph unicode="&#x2007;" horiz-adv-x="316" />
<glyph unicode="&#x2008;" horiz-adv-x="237" />
<glyph unicode="&#x2009;" horiz-adv-x="379" />
<glyph unicode="&#x200a;" horiz-adv-x="105" />
<glyph unicode="&#x2010;" horiz-adv-x="819" d="M104 475l60 125h553l-61 -125h-552z" />
<glyph unicode="&#x2011;" horiz-adv-x="819" d="M104 475l60 125h553l-61 -125h-552z" />
<glyph unicode="&#x2012;" horiz-adv-x="819" d="M104 475l60 125h553l-61 -125h-552z" />
<glyph unicode="&#x2013;" horiz-adv-x="1024" d="M-33 475l66 125h1024l-66 -125h-1024z" />
<glyph unicode="&#x2014;" horiz-adv-x="2048" d="M-33 475l66 125h1047h1001l-61 -125h-1047h-1006z" />
<glyph unicode="&#x2018;" horiz-adv-x="452" d="M92 1153q35 211 205 275l19 -48q-120 -74 -124 -188q28 28 68 28q42 0 72 -28t32 -68q0 -63 -32 -103t-92 -40q-58 0 -101 49.5t-47 122.5z" />
<glyph unicode="&#x2019;" horiz-adv-x="452" d="M96 1288q0 38 14 70.5t41.5 52t67.5 21.5q60 0 102.5 -51t42.5 -125q0 -84 -59 -161t-141 -112l-24 45q120 80 128 188q-32 -26 -72 -32q-40 4 -68 33.5t-32 70.5z" />
<glyph unicode="&#x201c;" horiz-adv-x="819" d="M92 1155q35 213 205 277l19 -48q-118 -72 -124 -188q36 28 68 28q42 0 72 -29t32 -71q0 -60 -32.5 -100.5t-91.5 -40.5q-58 0 -101 49.5t-47 122.5zM440 1155q17 96 67.5 169.5t135.5 107.5l25 -48q-118 -71 -128 -188q32 28 68 28q42 0 72 -29t32 -71q0 -60 -33 -100.5 t-91 -42.5q-58 0 -101 50.5t-47 123.5z" />
<glyph unicode="&#x201d;" horiz-adv-x="819" d="M96 1288q0 61 32.5 100.5t90.5 39.5q60 0 102.5 -50t42.5 -126q0 -56 -27 -110.5t-72.5 -96.5t-100.5 -64l-24 47q118 64 128 188q-32 -26 -72 -32q-40 4 -68 33.5t-32 70.5zM448 1284q0 63 32 103.5t92 40.5q37 0 69.5 -22t51.5 -62t19 -88q0 -88 -56.5 -165 t-139.5 -110l-24 47q120 70 128 188q-25 -24 -71 -32q-40 4 -68.5 33t-32.5 67z" />
<glyph unicode="&#x201e;" horiz-adv-x="819" d="M92 84q0 54 32 96.5t91 42.5q62 0 103.5 -48.5t41.5 -123.5q0 -84 -57 -162.5t-139 -111.5l-24 47q120 70 128 188q-36 -28 -72 -28q-40 0 -70 29t-34 71zM444 80q0 62 33 102.5t91 40.5q37 0 70.5 -22.5t53.5 -62.5t20 -91q0 -80 -61 -159.5t-139 -110.5l-24 47 q120 70 128 188q-29 -28 -71 -28q-39 0 -68 28.5t-33 67.5z" />
<glyph unicode="&#x2022;" horiz-adv-x="944" d="M125 696q0 94 46.5 175.5t127.5 129t176 47.5q96 0 177.5 -47t128.5 -128t47 -177t-47 -175t-128.5 -126t-177.5 -47t-176.5 47t-127 127t-46.5 174z" />
<glyph unicode="&#x2026;" horiz-adv-x="2048" d="M209 104q0 58 37.5 101.5t85.5 46.5q72 0 105 -40.5t38 -86.5q0 -50 -32.5 -94.5t-98.5 -46.5q-49 0 -90 34t-45 86zM893 104q0 58 37.5 101.5t85.5 46.5q72 0 105 -40.5t38 -86.5q0 -50 -32.5 -94.5t-98.5 -46.5q-49 0 -90 34t-45 86zM1573 104q0 58 37.5 101.5 t85.5 46.5q73 0 108 -42t35 -85q0 -50 -31.5 -94.5t-99.5 -46.5q-47 0 -89 34.5t-46 85.5z" />
<glyph unicode="&#x202f;" horiz-adv-x="379" />
<glyph unicode="&#x2039;" horiz-adv-x="491" d="M104 545l224 352l59 -37l-127 -315l108 -326l-65 -35z" />
<glyph unicode="&#x203a;" horiz-adv-x="491" d="M104 215l128 321l-107 324l63 37l199 -361l-223 -352z" />
<glyph unicode="&#x205f;" horiz-adv-x="474" />
<glyph unicode="&#x2122;" horiz-adv-x="2007" d="M68 1200v196h696v-196h-47q0 80 -29.5 112t-111.5 36h-105v-640q0 -16 -2 -28q7 -48 37.5 -60t97.5 -12v-40h-376v40q71 0 101.5 14.5t30.5 73.5v652h-92q-97 0 -122 -34q-26 -33 -30 -114h-48zM899 568v40q66 0 83.5 12t17.5 52v45v559v45q0 23 -4 27q-8 12 -76 12v36 h220l265 -632l271 632h232v-36q-70 0 -88 -12q-12 -8 -12 -31v-625q0 -36 11 -52t30 -21t59 -11v-40h-321v40q54 0 79.5 17t25.5 67v29v592l-308 -745h-20l-312 749v-625q0 -12 -4 -24q9 -38 33.5 -49t73.5 -11v-40h-256z" />
<glyph unicode="&#x25fc;" horiz-adv-x="990" d="M0 0v990h990v-990h-990z" />
</font>
</defs>
</svg>
