<?xml version="1.0" standalone="no"?>
<!DOCTYPE svg PUBLIC "-//W3C//DTD SVG 1.1//EN" "http://www.w3.org/Graphics/SVG/1.1/DTD/svg11.dtd" >
<svg xmlns="http://www.w3.org/2000/svg">
<metadata></metadata>
<defs>
<font id="qtkorrinitalic" horiz-adv-x="1228" >
<font-face units-per-em="2048" ascent="1638" descent="-410" />
<missing-glyph horiz-adv-x="593" />
<glyph horiz-adv-x="0" />
<glyph unicode="&#xd;" horiz-adv-x="593" />
<glyph unicode=" "  horiz-adv-x="593" />
<glyph unicode="&#x09;" horiz-adv-x="593" />
<glyph unicode="&#xa0;" horiz-adv-x="593" />
<glyph unicode="!" horiz-adv-x="593" d="M100 98q0 51 40 85t98 34q39 0 65.5 -34t26.5 -83t-39 -81.5t-96 -32.5q-37 0 -66 32.5t-29 79.5zM236 336l102 811q18 145 51 195.5t111 50.5q33 0 55.5 -24.5t22.5 -59.5q0 -33 -11 -72q-18 -55 -30 -94l-254 -807h-47z" />
<glyph unicode="&#x22;" horiz-adv-x="694" d="M100 817l72 549h166l-162 -549h-76zM416 817l71 549h166l-161 -549h-76z" />
<glyph unicode="#" horiz-adv-x="1210" d="M92 469l29 74h246l118 307h-237l26 74h246l180 442h82l-182 -442h309l183 442h82l-183 -442h228l-29 -74h-232l-120 -307h227l-29 -74h-233l-191 -469h-82l193 469h-309l-193 -469h-82l193 469h-240zM446 543h312l119 307h-310z" />
<glyph unicode="$" horiz-adv-x="1161" d="M-2 266l182 158l27 -31q-41 -53 -41 -98q0 -88 113.5 -154.5t265.5 -66.5q168 0 278.5 82t110.5 206q0 150 -182 242q-170 72 -338 146q-182 100 -183 266q0 172 160 278q141 94 322 95l45 208h108l-45 -221q203 -37 338 -184l-174 -174l-31 29q33 41 33 77q0 66 -85 116 t-193 50q-143 0 -234.5 -60.5t-91.5 -156.5q0 -115 182 -199q168 -78 338 -153q184 -113 184 -293q0 -215 -169 -342q-156 -117 -377 -117l-21 2l-41 -202h-110l45 213l-6 2q-270 51 -410 282z" />
<glyph unicode="%" horiz-adv-x="1425" d="M98 932q0 156 84 291q96 156 244 155q192 0 192 -248q0 -184 -96 -323t-225 -139q-96 0 -147.5 67.5t-51.5 196.5zM164 0l1014 1364h84l-1014 -1364h-84zM193 885q0 -59 25.5 -103.5t80.5 -44.5q96 0 161.5 123t65.5 301q0 152 -110 152q-94 0 -158.5 -120t-64.5 -308z M772 248q0 162 82 293q96 154 246 153q190 1 190 -245q0 -184 -96 -323.5t-223 -139.5q-96 0 -147.5 67.5t-51.5 194.5zM866 203q0 -61 23.5 -104.5t81.5 -43.5q96 0 161.5 122t65.5 300q0 152 -108 152q-94 0 -159 -120t-65 -306z" />
<glyph unicode="&#x26;" horiz-adv-x="1527" d="M125 309q0 164 117.5 284t320.5 161q-223 66 -223 243q0 158 153.5 275t368.5 117q180 0 393 -62l-51 -233h-43q-12 92 -83.5 141t-192.5 49q-158 0 -264.5 -82t-106.5 -207q0 -84 70.5 -135t189.5 -51l68 2l-23 -104q-154 0 -232.5 -22.5t-152.5 -86.5 q-123 -104 -123 -264q0 -117 89 -187.5t239 -70.5q203 0 352.5 112.5t149.5 266.5q0 70 -80 84q-33 6 -80 6l12 53h512l-12 -53q-109 0 -145 -37q-12 -12 -35 -78q-72 -217 -271 -340q-186 -117 -424 -117q-236 0 -358 93q-61 45 -98 110.5t-37 132.5z" />
<glyph unicode="'" horiz-adv-x="399" d="M145 817l70 549h172l-162 -549h-80z" />
<glyph unicode="(" horiz-adv-x="720" d="M104 240q0 254 140 542q82 170 198.5 314.5t315.5 322.5l33 -35q-168 -193 -263.5 -336t-158.5 -300q-51 -133 -84 -300t-33 -294q0 -143 33.5 -278.5t99.5 -270.5l-43 -35q-238 313 -238 670z" />
<glyph unicode=")" horiz-adv-x="720" d="M-63 -393q170 193 264 335t155 300q53 137 86 300t33 294q0 88 -14.5 185t-36.5 169l-82 196l43 33q238 -313 238 -667q0 -256 -140 -545q-84 -172 -199.5 -315.5t-314.5 -321.5z" />
<glyph unicode="*" horiz-adv-x="993" d="M266 1161q0 43 26.5 69.5t69.5 26.5q63 0 123 -75q76 -98 103 -113l6 43q0 31 -13.5 91.5t-13.5 76.5q0 51 30 83t75 32q41 0 68.5 -30t27.5 -73q0 -47 -72 -147q-39 -53 -45 -90q41 6 117 49t121 43q41 0 71.5 -28.5t30.5 -67.5q0 -43 -30.5 -72t-77.5 -29 q-33 0 -119 29q-43 14 -72 14l-35 -2q14 -33 97 -110q70 -66 69 -119q0 -43 -26.5 -71.5t-69.5 -28.5q-53 0 -82 44t-29 152l2 14q0 39 -2 50q-2 10 -18 45q-14 -14 -82 -144q-47 -92 -119 -92q-41 0 -68.5 27.5t-27.5 68.5q0 74 98 115q143 59 158 72q-29 14 -129 30 q-162 25 -162 117z" />
<glyph unicode="+" horiz-adv-x="1024" d="M61 653v92h420v396h94v-396h420v-92h-420v-395h-94v395h-420z" />
<glyph unicode="," horiz-adv-x="544" d="M12 -246q59 53 113.5 126t71.5 122q-23 -16 -47 -16q-35 0 -57.5 25.5t-22.5 66.5q0 55 43 98t98 43q47 0 73.5 -33t26.5 -90q0 -147 -243 -391z" />
<glyph unicode="-" horiz-adv-x="458" d="M31 436l26 127h377l-26 -127h-377z" />
<glyph unicode="." horiz-adv-x="544" d="M80 98q0 51 40 85t97 34q39 0 65.5 -34t26.5 -83t-39 -81.5t-96 -32.5q-37 0 -65.5 32.5t-28.5 79.5z" />
<glyph unicode="/" horiz-adv-x="1060" d="M-197 -375l1201 1741h161l-1202 -1741h-160z" />
<glyph unicode="0" horiz-adv-x="1161" d="M115 496q0 96 33.5 235t80.5 244q86 193 203 295q139 123 328 123q373 -1 373 -490q0 -315 -156 -596q-184 -334 -475 -334q-186 0 -286.5 135.5t-100.5 387.5zM283 403q0 -127 45 -208q57 -104 176 -105q236 0 366 336q101 256 101 537q0 319 -232 319 q-193 0 -324.5 -245.5t-131.5 -633.5z" />
<glyph unicode="1" horiz-adv-x="1161" d="M236 0l8 41q113 0 149.5 28.5t59.5 129.5l221 1036q-61 -23 -138 -39t-145 -16l12 55q129 23 208 50.5t161 80.5h86l-254 -1192l-10 -45q0 -45 24.5 -66.5t108.5 -21.5l-10 -41h-481z" />
<glyph unicode="2" horiz-adv-x="1161" d="M-16 0q68 244 319 434q213 141 426 283q213 156 213 334q0 102 -69.5 167.5t-180.5 65.5q-250 0 -375 -215h-51l47 219q219 104 412 105q176 0 284.5 -88.5t108.5 -233.5q0 -72 -37 -160t-94 -149q-98 -102 -297 -217q-297 -170 -317 -185q-166 -115 -228 -245h560 q104 0 139 17.5t61 82.5h49l-45 -215h-925z" />
<glyph unicode="3" horiz-adv-x="1161" d="M25 14l43 205h45q18 -76 76.5 -107.5t177.5 -31.5q203 0 348 121t145 288q0 152 -129 216q-96 47 -266 47l24 112l37 -2q162 0 261.5 67.5t99.5 178.5q0 80 -73 132t-181 52q-213 0 -328 -166h-45l41 189q195 78 385 78q162 0 266.5 -71.5t104.5 -184.5q0 -88 -59.5 -167 t-153.5 -114q-37 -14 -71 -22.5t-107 -16.5q123 -18 173 -36.5t99 -63.5q98 -88 98 -217q0 -215 -211 -371t-506 -156q-133 0 -294 41z" />
<glyph unicode="4" horiz-adv-x="1161" d="M18 334l27 129l891 903h115l-197 -924h213l-23 -108h-213q-20 -76 -28 -117q-18 -78 -19 -117q0 -31 9 -41q8 -10 34 -14l23 -4l-8 -41h-320l8 41l31 2q55 0 88 121q29 139 35 170h-666zM158 442h549l155 736z" />
<glyph unicode="5" horiz-adv-x="1161" d="M-6 10l45 209h45q0 -74 47 -106.5t154 -32.5q242 0 420 141t178 338q0 119 -76 190.5t-205 71.5q-188 0 -323 -147l-91 37l140 655h784l-68 -123h-620l-84 -395q137 86 309 86q182 0 293 -102.5t111 -268.5q0 -233 -229.5 -411.5t-534.5 -178.5q-125 0 -295 37z" />
<glyph unicode="6" horiz-adv-x="1161" d="M109 438q0 352 219 641q238 313 577 314q70 0 137.5 -16.5t114.5 -45.5l-37 -176h-51q0 70 -55.5 99.5t-132.5 29.5q-190 0 -341 -146.5t-212 -389.5q84 84 181 131t210 47q162 0 262 -96.5t100 -256.5q0 -240 -172 -420t-401 -180q-399 0 -399 465zM258 356 q0 -123 71.5 -196.5t192.5 -73.5q166 0 283 135t117 330q0 119 -67 187.5t-183 68.5q-166 0 -290 -134t-124 -317z" />
<glyph unicode="7" horiz-adv-x="1161" d="M248 1141l47 225h891q-31 -158 -166 -362l-121 -177q-113 -168 -166 -258q-88 -150 -139 -272q-61 -152 -80 -297h-184q37 225 182 469q78 131 285 405q182 244 241 365h-563q-94 0 -125 -16.5t-53 -81.5h-49z" />
<glyph unicode="8" horiz-adv-x="1161" d="M55 336q0 141 89 263t216 155l66 18q-80 23 -132 88.5t-52 145.5q0 170 139 278.5t354 108.5q180 0 282.5 -82t102.5 -232q0 -117 -82 -207t-219 -118q117 -23 182.5 -104t65.5 -204q0 -199 -159.5 -336t-393.5 -137q-207 0 -333 99.5t-126 263.5zM223 348 q0 -121 80 -192.5t215 -71.5q164 0 272.5 100t108.5 254q0 127 -79 198t-222 71q-164 0 -269.5 -99.5t-105.5 -259.5zM401 1016q0 -88 68 -143.5t172 -55.5q147 0 233.5 69.5t86.5 190.5q0 92 -69 146.5t-185 54.5q-137 0 -221.5 -71.5t-84.5 -190.5z" />
<glyph unicode="9" horiz-adv-x="1161" d="M98 39l39 182h39q0 -66 57.5 -102.5t157.5 -36.5q188 0 338 159.5t193 409.5q-59 -92 -156.5 -143t-214.5 -51q-162 0 -268.5 106.5t-106.5 267.5q0 227 159 394.5t380 167.5q186 0 290.5 -125t104.5 -348q0 -391 -213 -669t-512 -278q-82 0 -137 12.5t-150 53.5z M336 809q0 -109 73.5 -174.5t194.5 -65.5q141 0 251 126t110 288q0 137 -72 217t-199 80q-158 0 -258 -131t-100 -340z" />
<glyph unicode=":" horiz-adv-x="544" d="M78 98q0 51 40 85t97 34q39 0 65.5 -34t26.5 -83t-39 -81.5t-96 -32.5q-37 0 -65.5 32.5t-28.5 79.5zM238 852q0 49 39.5 83t97.5 34q39 0 65.5 -33t26.5 -84q0 -49 -39 -82t-96 -33q-39 0 -66.5 34t-27.5 81z" />
<glyph unicode=";" horiz-adv-x="544" d="M12 -246q59 53 113.5 126t71.5 122q-23 -16 -47 -16q-35 0 -57.5 25.5t-22.5 66.5q0 55 43 98t98 43q47 0 73.5 -33t26.5 -90q0 -147 -243 -391zM238 852q0 49 39.5 83t99.5 34q37 0 64.5 -34t27.5 -83q0 -47 -39 -80t-98 -33q-37 0 -65.5 33t-28.5 80z" />
<glyph unicode="&#x3c;" horiz-adv-x="1024" d="M129 698v15l848 544v-79l-631 -412l631 -422v-213z" />
<glyph unicode="=" horiz-adv-x="1024" d="M86 512v90h934v-90h-934zM86 803v88h934v-88h-934z" />
<glyph unicode="&#x3e;" horiz-adv-x="1024" d="M129 131v80l631 412l-631 421v213l848 -567v-14z" />
<glyph unicode="?" horiz-adv-x="946" d="M125 98q0 51 40 85t97 34q39 0 65.5 -34t26.5 -83t-39 -81.5t-96 -32.5q-37 0 -65.5 32.5t-28.5 79.5zM223 1149l41 188q141 55 289 56q184 0 299 -118.5t115 -311.5q0 -168 -113 -310.5t-274 -177.5q-68 -14 -98.5 -18t-114.5 -4l-29 -129h-70l60 270l78 -4 q178 0 296.5 114.5t118.5 286.5q0 129 -84 213t-215 84q-86 0 -142 -30.5t-114 -108.5h-43z" />
<glyph unicode="@" horiz-adv-x="1499" d="M57 643q0 180 92.5 353t245.5 274q188 129 465 129q248 0 414 -152t166 -381t-126 -405t-290 -176q-74 0 -109 65q-27 51 -26 131q-133 -203 -281 -202q-82 0 -134 70.5t-52 178.5q0 178 108 351q123 195 287 194q111 0 182 -110l15 88q51 0 63 2q27 10 43 12l-116 -481 q-6 -25 -14.5 -68t-8.5 -72q0 -94 70 -94q51 0 108.5 41t108.5 117q100 154 100 350q0 201 -145.5 338t-360.5 137q-188 0 -341.5 -75.5t-239.5 -213.5q-53 -84 -94.5 -208.5t-41.5 -206.5q0 -242 172 -416t412 -174q119 0 240 55q92 43 213 131l57 -22q-141 -115 -250 -166 q-141 -66 -295 -66q-260 0 -448.5 199t-188.5 473zM526 496q0 -70 31 -113t84 -43q82 0 166 109.5t111 252.5l8 41l35 111l2 18q0 66 -33 107t-86 41q-131 0 -232 -201q-86 -172 -86 -323z" />
<glyph unicode="A" horiz-adv-x="1439" d="M12 0l8 41q37 0 53.5 12.5t51.5 65.5l805 1247h114l310 -1219q16 -59 31.5 -78.5t54.5 -27.5l-8 -41h-320l8 41q70 8 70 55l-10 51l-105 418h-532l-267 -418q-20 -35 -20 -57q0 -41 55 -49l-8 -41h-291zM606 668h445l-123 506z" />
<glyph unicode="B" horiz-adv-x="1398" d="M37 0l8 41q47 4 69.5 33.5t41.5 109.5l219 1030l8 58q0 49 -49 49l-17 2l11 43h563q197 0 291 -39q147 -61 147 -229q0 -70 -38 -138.5t-103 -119.5q-43 -31 -83 -47.5t-114 -34.5q293 -63 293 -299q0 -90 -54 -186.5t-141.5 -160t-168 -88t-203.5 -24.5h-680zM303 113 h375q125 0 181 16t128 76q127 107 127 244t-89 199.5t-284 62.5h-311zM455 823h374q137 0 224 54q106 65 106 196q0 94 -65.5 137t-214.5 43h-332z" />
<glyph unicode="C" horiz-adv-x="1357" d="M158 584q0 332 244.5 570.5t605.5 238.5q152 0 252 -47t178 -158l-183 -166l-28 29q27 27 26 63q0 80 -79.5 129t-212.5 49q-258 0 -445.5 -205.5t-187.5 -488.5q0 -225 157.5 -374.5t393.5 -149.5q268 0 342 149h39l-39 -192q-92 -33 -164 -45.5t-176 -12.5 q-160 0 -274.5 31t-211.5 100q-238 174 -237 480z" />
<glyph unicode="D" horiz-adv-x="1495" d="M37 0l8 41q47 4 69.5 33.5t41.5 109.5l219 1030l8 60q0 27 -13.5 34t-52.5 17l11 41h352q332 0 526 -141q221 -162 221 -486q0 -176 -77.5 -330.5t-223.5 -261.5q-129 -94 -224 -120.5t-312 -26.5h-553zM303 113h322q307 0 481 206q68 82 108.5 196.5t40.5 223.5 q0 182 -102 317.5t-272 174.5q-92 22 -203 22h-10l-123 -2z" />
<glyph unicode="E" horiz-adv-x="1261" d="M37 0l8 41q78 0 105 115l219 1034q6 27 10 46t4 34q0 55 -64 55l9 41h1009l-45 -215h-53q0 63 -23.5 82.5t-99.5 19.5h-569l-88 -411h342q88 0 120.5 12t59.5 57h43l-53 -245h-41q-6 39 -25.5 52t-70.5 13h-400l-131 -618h551q131 0 174 20.5t82 104.5h45l-51 -238h-1067 z" />
<glyph unicode="F" horiz-adv-x="1157" d="M37 0l8 41q47 4 69.5 33.5t41.5 109.5l219 1030l8 58q0 49 -49 49l-17 2l11 43h1009l-51 -240h-55l2 23q0 66 -38 85t-161 19h-487l-92 -428h325q90 0 126 14.5t52 59.5h52l-56 -254h-51q0 43 -20.5 56.5t-61.5 13.5l-53 -2h-336l-121 -561l-8 -60q0 -49 47 -49l17 -2 l-9 -41h-321z" />
<glyph unicode="G" horiz-adv-x="1523" d="M152 588q0 334 253.5 569.5t616.5 235.5q188 0 305 -56.5t189 -179.5l-193 -156l-23 31q14 20 21 31q8 14 8 33q0 82 -91 139t-220 57q-303 0 -499.5 -200.5t-196.5 -507.5q0 -246 158.5 -378t451.5 -132q78 0 151 8l113 528q4 14 6 31.5t2 28.5q0 27 -17.5 38t-45.5 11 l10 43h313l-8 -43q-51 -10 -74 -49q-14 -25 -28 -92l-88 -410q-8 -39 -15 -76q0 -45 52 -55l-9 -37q-127 -14 -220 -20.5t-161 -6.5q-217 0 -356 43t-238 142q-80 80 -123.5 192.5t-43.5 237.5z" />
<glyph unicode="H" horiz-adv-x="1531" d="M37 0l8 41q47 4 69.5 33.5t41.5 109.5l219 1030l8 60q0 27 -13.5 34t-52.5 17l11 41h321l-8 -41q-47 -4 -69.5 -33.5t-41.5 -109.5l-77 -367h768l84 399l10 60q0 29 -21 39q-4 2 -45 12l8 41h324l-10 -41q-49 -4 -70.5 -32.5t-38.5 -110.5l-219 -1030l-8 -60 q0 -49 47 -49l16 -2l-8 -41h-321l8 41q49 4 70.5 32.5t37.5 110.5l113 529h-766l-121 -561l-8 -60q0 -49 47 -49l19 -2l-11 -41h-321z" />
<glyph unicode="I" horiz-adv-x="600" d="M37 0l8 41q47 4 69.5 33.5t41.5 109.5l219 1030l8 60q0 27 -13.5 34t-52.5 17l11 41h321l-8 -41q-49 -4 -71.5 -32.5t-39.5 -110.5l-219 -1030l-8 -60q0 -49 47 -49l19 -2l-11 -41h-321z" />
<glyph unicode="J" horiz-adv-x="1112" d="M-47 258l209 143l20 -32q-35 -37 -47 -59.5t-12 -47.5q0 -80 61.5 -131t159.5 -51q145 0 250.5 97t140.5 267l166 775l6 53q0 53 -63 53l10 41h322l-11 -41q-53 0 -71.5 -25.5t-38.5 -125.5l-142 -668q-31 -143 -61.5 -215t-91.5 -135q-80 -86 -195.5 -135.5 t-236.5 -49.5q-289 0 -375 287z" />
<glyph unicode="K" horiz-adv-x="1355" d="M37 0l8 41q49 4 70.5 31.5t40.5 111.5l219 1030l8 60q0 27 -13.5 34t-52.5 17l11 41h321l-8 -41q-49 -4 -71.5 -32.5t-39.5 -110.5l-90 -428l652 477q55 37 55 65q0 18 -18.5 21.5t-34.5 7.5l8 41h362l-8 -41q-86 -10 -199 -94l-380 -283l258 -764q29 -84 34 -94 q25 -45 78 -53l-8 -37h-342l8 41q31 0 53.5 10t22.5 37l-16 64l-224 706l-329 -240l-101 -466l-8 -60q0 -49 49 -49l15 -2l-9 -41h-321z" />
<glyph unicode="L" horiz-adv-x="1159" d="M37 0l8 41q45 0 67.5 26.5t39.5 98.5l227 1069l4 37q0 27 -19.5 38t-46.5 11l11 45h321l-10 -45q-47 -6 -68.5 -31.5t-35.5 -89.5l-232 -1087h559q78 0 119 24.5t68 85.5h41l-48 -223h-1005z" />
<glyph unicode="M" horiz-adv-x="1746" d="M37 0l8 41q47 4 69.5 33.5t41.5 109.5l219 1030l8 60q0 27 -13.5 34t-52.5 17l11 41h272l291 -811l616 811h289l-8 -41q-49 -4 -71.5 -32.5t-39.5 -110.5l-219 -1030l-8 -60q0 -49 47 -49l16 -2l-8 -41h-321l8 41q51 4 71.5 30.5t39.5 112.5l223 1049l-662 -875h-76 l-296 830l-222 -1036l-8 -60q0 -49 47 -49l17 -2l-9 -41h-280z" />
<glyph unicode="N" horiz-adv-x="1517" d="M37 0l8 41q47 4 69.5 33.5t41.5 109.5l219 1030l8 60q0 27 -13.5 34t-52.5 17l11 41h237l645 -717l119 565l10 60q0 29 -20 39q-4 2 -45 12l8 41h285l-8 -41q-49 -4 -72 -32.5t-39 -110.5l-219 -1030l-8 -60q0 -49 47 -49l16 -2l-8 -41h-283l8 41q49 4 71 32.5t38 110.5 l59 277l-673 729l-222 -1038l-10 -60q0 -49 49 -49l17 -2l-11 -41h-282z" />
<glyph unicode="O" horiz-adv-x="1589" d="M147 596q0 319 232.5 558t544.5 239q264 0 436 -155.5t172 -397.5q0 -377 -214 -622t-564 -245l-35 -2q-258 0 -415 171t-157 454zM317 500q0 -178 123 -303t299 -125l27 2q274 0 442 235q154 215 154 512q0 221 -112.5 346t-311.5 125q-268 0 -444.5 -225t-176.5 -567z " />
<glyph unicode="P" horiz-adv-x="1202" d="M37 0l8 41q49 4 70.5 31.5t40.5 111.5l219 1030l8 58q0 49 -49 49l-17 2l11 43h508q176 0 284 -61q137 -78 137 -246q0 -164 -165 -295q-133 -106 -361 -189q-111 -41 -352 -106l-68 -317l-8 -60q0 -51 64 -51l-9 -41h-321zM401 573q295 88 424 156q262 138 262 324 q0 94 -71.5 147t-200.5 53h-268z" />
<glyph unicode="Q" horiz-adv-x="1632" d="M156 569q0 332 237.5 578t560.5 246q272 0 443.5 -169.5t171.5 -437.5q0 -180 -85 -347t-245 -294q35 -51 82 -85.5t80 -34.5q43 0 65 47h37l-37 -178l-34 -3q-199 0 -308 181q-78 -47 -175 -74t-193 -27q-254 0 -427 173t-173 425zM326 508q0 -190 120.5 -313 t309.5 -123q162 0 293 84q-55 84 -127 131t-144 47q-100 0 -184 -60l-43 68q133 92 256 92q94 0 171 -41t179 -149q109 104 174.5 257.5t65.5 307.5q0 207 -123 340t-318 133q-274 0 -452 -219t-178 -555z" />
<glyph unicode="R" horiz-adv-x="1419" d="M37 0l8 41q47 4 69.5 33.5t41.5 109.5l219 1030l8 58q0 49 -49 49l-17 2l11 43h583q199 0 297 -37q162 -61 162 -223q0 -158 -117.5 -269.5t-314.5 -142.5l231 -491q51 -109 71 -132.5t71 -29.5l-8 -41h-226l-311 678h-342l-113 -526l-8 -60q0 -49 47 -49l17 -2l-9 -41 h-321zM449 788h311q172 0 284 52q154 69 154 223q0 109 -69.5 149.5t-254.5 40.5h-327z" />
<glyph unicode="S" horiz-adv-x="1255" d="M23 270l190 158l29 -31q-41 -49 -41 -98q0 -86 121.5 -155.5t277.5 -69.5q178 0 293 82t115 206q0 150 -193 242l-360 148q-195 100 -195 268q0 158 141.5 266.5t346.5 108.5q299 0 485 -197l-178 -174l-33 27q31 41 31 77q0 63 -89.5 113.5t-203.5 50.5 q-147 0 -243.5 -59t-96.5 -150q0 -74 46 -117.5t181 -99.5q258 -98 336 -147q184 -117 184 -293q0 -195 -155.5 -324t-395.5 -129q-399 0 -593 297z" />
<glyph unicode="T" horiz-adv-x="1089" d="M117 1141l47 225h1063l-47 -225h-47l8 43q0 45 -21.5 57t-101.5 12h-254l-236 -1101l-8 -60q0 -49 47 -49l17 -2l-9 -41h-321l8 41q47 4 69.5 33.5t41.5 109.5l227 1069h-278q-78 0 -105 -18t-51 -94h-49z" />
<glyph unicode="U" horiz-adv-x="1525" d="M123 420q0 123 45 256q35 102 108 239q92 176 218 328q8 10 17 23.5t9 23.5q-4 27 -41 31l10 45h318l-10 -45q-98 -31 -165 -106.5t-127.5 -173t-108.5 -204t-70 -175.5q-33 -102 -33 -189v-27q0 -76 23.5 -138t75.5 -114.5t110.5 -66.5t152.5 -14h410l235 1101l9 56 q0 53 -47 53l-19 2l10 41h322l-8 -41q-55 -6 -80 -47q-14 -23 -31 -96l-219 -1030l-8 -56q0 -55 47 -55h18l-10 -41h-629q-115 0 -189.5 10t-148.5 49q-96 51 -145 147.5t-49 213.5z" />
<glyph unicode="V" horiz-adv-x="1175" d="M166 1327l8 39h307l-8 -39q-45 0 -61.5 -12t-16.5 -45l6 -51l156 -983l551 972q16 29 23.5 45.5t7.5 26.5q0 37 -56 47l9 39h268l-8 -39q-35 -6 -53.5 -22.5t-49.5 -69.5l-714 -1235h-95l-207 1208q-14 78 -23 93.5t-44 25.5z" />
<glyph unicode="W" horiz-adv-x="1824" d="M170 1327l8 39h309l-8 -39q-74 0 -73 -55l6 -43l133 -1020l420 754l-37 266q-6 49 -19.5 68.5t-48.5 29.5l8 39h308l-9 -39q-74 0 -73 -67l4 -41l121 -1010l540 987q16 29 22.5 46.5t6.5 31.5q0 25 -10.5 35t-42.5 18l8 39h266l-8 -39q-33 -6 -51.5 -24.5t-48.5 -73.5 l-689 -1229h-129l-100 791l-444 -791h-129l-170 1229q-6 51 -20.5 71.5t-49.5 26.5z" />
<glyph unicode="X" horiz-adv-x="1230" d="M-94 0l8 41q47 10 74.5 30.5t97.5 102.5l483 547l-217 483q-29 61 -53.5 88t-58.5 33l8 41h323l-10 -41q-59 0 -59 -45q0 -10 6 -23.5t12 -25.5l178 -391l306 346q39 45 53 65.5t14 32.5q0 35 -57 41l8 41h313l-8 -41q-39 -6 -65.5 -24.5t-73.5 -69.5l-443 -494l269 -563 q37 -80 43 -88q31 -45 82 -45l-11 -41h-348l8 41q74 12 74 53l-12 39l-227 485l-402 -460q-43 -49 -43 -72q0 -35 53 -45l-8 -41h-317z" />
<glyph unicode="Y" horiz-adv-x="1157" d="M162 1325l8 41h319l-8 -41q-61 0 -61 -41q0 -12 6 -28.5t8 -24.5l199 -604l438 604q25 33 25 55q0 31 -47 39l8 41h289l-9 -41q-47 -8 -69.5 -26.5t-81.5 -98.5l-508 -692l-76 -356l-8 -60q0 -49 47 -49l16 -2l-8 -41h-321l8 41q47 4 69.5 33.5t40.5 109.5l66 312 l-248 704q-29 88 -44 106.5t-58 18.5z" />
<glyph unicode="Z" horiz-adv-x="1134" d="M-14 0l12 53l936 1200h-449q-96 0 -135 -21.5t-55 -82.5h-51l47 217h903l-12 -51l-932 -1202h514q119 0 160 20.5t69 95.5h51l-47 -229h-1011z" />
<glyph unicode="[" horiz-adv-x="681" d="M23 -375l370 1741h285l-23 -109q-115 0 -141 -26q-10 -10 -27 -86l-276 -1299l-8 -65q0 -27 21.5 -38t54.5 -11l53 2l-23 -109h-286z" />
<glyph unicode="\" horiz-adv-x="638" d="M-4 1366h162l460 -1741h-159z" />
<glyph unicode="]" horiz-adv-x="681" d="M10 -375l23 109h35q51 0 69 6q45 14 64 106l276 1299l8 65q0 27 -21.5 38.5t-53.5 11.5l-54 -3l25 109h285l-369 -1741h-287z" />
<glyph unicode="^" horiz-adv-x="1024" d="M-10 584l567 850h14l545 -850h-80l-411 630l-422 -630h-213z" />
<glyph unicode="_" horiz-adv-x="1030" d="M-14 -180h1067v-92h-1067v92z" />
<glyph unicode="`" horiz-adv-x="514" d="M61 1262q0 29 17.5 50t42.5 21q41 0 94 -41l229 -170l-16 -30l-260 79q-106 35 -107 91z" />
<glyph unicode="a" horiz-adv-x="1169" d="M70 217q0 188 202 315q213 133 553 134l11 69q0 66 -58.5 102.5t-165.5 36.5q-186 0 -299 -135h-43l33 154q164 76 361 76q331 0 331 -196q0 -19 -3 -41t-5 -38l-98 -461q-8 -35 -10 -45q-2 -14 -2 -30q0 -76 65 -76q23 0 44.5 10t64.5 41l34 -35q-114 -114 -213 -114h-2 q-72 0 -113.5 44t-41.5 119q-151 -161 -364 -161h-3q-123 0 -200.5 63.5t-77.5 167.5zM233 248q0 -68 47.5 -107t129.5 -39q86 0 177 45.5t154 118.5l66 314q-223 -27 -354 -80q-219 -88 -220 -252z" />
<glyph unicode="b" horiz-adv-x="1208" d="M14 0l6 33q47 4 68 22.5t31 65.5l227 1073q6 25 10 43t4 33q0 53 -47 53l-41 -4l11 47l260 27l-113 -533q86 53 150 78q80 31 163 31q164 0 266.5 -102.5t102.5 -268.5q0 -106 -41 -206.5t-121 -186.5q-113 -121 -272 -168q-125 -37 -324 -37h-340zM268 98 q51 -12 113 -12q274 0 416 139q68 66 108.5 159t40.5 183q0 135 -68.5 212t-187.5 77q-158 0 -284 -111z" />
<glyph unicode="c" horiz-adv-x="1011" d="M98 408q0 225 170 393t402 168q219 0 358 -158l-166 -154l-28 29q29 37 28 70q0 45 -61.5 79.5t-145.5 34.5q-166 0 -279.5 -126t-113.5 -308q0 -166 92 -260t256 -94q150 0 248 104h37l-33 -153q-59 -20 -131 -33.5t-137 -13.5q-227 0 -361.5 113.5t-134.5 308.5z" />
<glyph unicode="d" horiz-adv-x="1226" d="M86 358q0 150 88 289t236 223q180 100 438 101l106 -4l47 223q4 20 8.5 40.5t4.5 37.5q0 53 -47 53l-39 -4l10 47l260 29l-235 -1112q-18 -84 -19 -121q0 -31 18.5 -53.5t45.5 -22.5q53 0 118 59l33 -39q-43 -49 -110.5 -83.5t-122.5 -34.5q-147 0 -148 157 q-63 -72 -157.5 -114.5t-186.5 -42.5q-156 0 -252 102t-96 270zM250 379q0 -129 67.5 -203t188.5 -74q158 0 299 160l129 608q-47 6 -70 7h-24q-297 0 -449 -152q-63 -61 -102 -157.5t-39 -188.5z" />
<glyph unicode="e" horiz-adv-x="1026" d="M94 373q0 242 179.5 419t420.5 177q123 0 205 -57.5t82 -145.5q0 -137 -204 -234.5t-490 -97.5h-29l-2 -53q0 -131 95 -214t247 -83q188 0 291 137h26l-34 -170q-102 -31 -179 -48t-153 -17q-213 0 -334 102t-121 285zM268 510q182 0 336 47q227 70 227 209 q0 53 -41.5 84t-115.5 31q-137 0 -261 -113t-145 -258z" />
<glyph unicode="f" horiz-adv-x="579" d="M-10 -268q43 49 59.5 88t40.5 170l178 897h-110l14 67h111q39 178 57 232q41 121 109 178q82 70 225 70q81 0 155 -25l-34 -166h-33q-18 104 -113 105q-86 0 -133 -86q-14 -27 -78 -308h209l-14 -67h-209l-170 -795q-35 -166 -66 -227q-51 -102 -170 -160z" />
<glyph unicode="g" horiz-adv-x="1196" d="M-47 -250l186 139l19 -26q-35 -37 -35 -74q0 -55 73.5 -94t182.5 -39q158 0 268 88q119 94 119 248v119q-119 -125 -305 -125q-158 0 -264.5 102t-106.5 258q0 152 71.5 282t200.5 216q98 63 199 87.5t266 24.5h351l-9 -32q-45 -6 -64.5 -24.5t-29.5 -63.5l-123 -580 q-27 -121 -26 -150q0 -106 -8 -159q-14 -90 -54 -152q-68 -106 -205 -171.5t-297 -65.5q-262 0 -409 192zM254 367q0 -129 68.5 -206t183.5 -77q78 0 156.5 41t130.5 111l131 612q-188 0 -277 -17q-154 -29 -248 -118q-145 -139 -145 -346z" />
<glyph unicode="h" horiz-adv-x="1239" d="M92 0l254 1196q6 20 9 39.5t3 38.5q0 51 -47 51l-45 -2l8 41l269 29l-123 -574q66 72 163 111t205 39q123 0 198 -58.5t75 -154.5q0 -29 -10 -80l-95 -449l-10 -67q0 -80 70 -80q43 0 114 55l31 -33q-45 -53 -107.5 -84.5t-121.5 -31.5q-63 0 -102 41t-39 110q0 35 10 90 l67 312q14 74 18.5 99.5t4.5 53.5q0 78 -49 125t-133 47q-168 0 -314 -164l-149 -700h-154z" />
<glyph unicode="i" horiz-adv-x="579" d="M131 131q0 31 7 63.5t14 63.5l108 512q6 20 9 39.5t3 38.5q0 53 -47 53l-37 -4l11 45l258 27l-146 -688q-4 -20 -8 -41q-12 -51 -12 -74q0 -37 17.5 -60.5t45.5 -23.5q25 0 43.5 8t65.5 41l26 -33q-49 -51 -108 -81.5t-113 -30.5q-63 0 -100 38.5t-37 106.5zM317 1219 q0 49 40 82.5t98 33.5q37 0 63.5 -33.5t26.5 -80.5q0 -49 -39 -82t-96 -33q-39 0 -66 32.5t-27 80.5z" />
<glyph unicode="j" horiz-adv-x="559" d="M-428 -360l164 167l24 -22q-20 -23 -20 -51q0 -41 37 -63.5t100 -22.5q106 0 188 73.5t82 172.5q0 25 -8 73.5t-8 73.5q0 39 10 82l138 649q8 29 10 44t2 32q0 53 -47 53l-47 -4l10 45l268 27l-158 -742q-12 -57 -18 -106t-6 -86l2 -94q0 -152 -141.5 -273t-321.5 -121 q-156 0 -260 93zM322 1219q0 49 39.5 82.5t97.5 33.5q39 0 65.5 -32.5t26.5 -81.5t-39 -82t-96 -33q-37 0 -65.5 32.5t-28.5 80.5z" />
<glyph unicode="k" horiz-adv-x="1193" d="M94 0l254 1194q8 39 10 47q2 12 2 31q0 53 -45 53l-49 -6l10 45l269 29l-197 -938q137 193 316 333q227 180 411 181l80 -4l-49 -230h-37l2 29q0 86 -82 86q-119 0 -299 -152q23 -268 100.5 -444t172.5 -176q33 0 55 8t63 37l33 -37q-68 -55 -118 -77.5t-113 -22.5 q-164 0 -256 223q-70 170 -70 364q-168 -178 -211 -257.5t-98 -315.5h-154z" />
<glyph unicode="l" horiz-adv-x="571" d="M131 141q0 29 10 86l213 1002q4 12 4 39q0 57 -45 57l-47 -6l10 45l267 29l-240 -1131q-4 -23 -8 -50.5t-4 -39.5q0 -86 69 -86q45 0 115 57l31 -30q-111 -127 -238 -127q-63 0 -100 41t-37 114z" />
<glyph unicode="m" horiz-adv-x="1804" d="M92 0l164 770q8 39 10 47q2 12 2 31q0 53 -45 53l-37 -4l11 45l245 27l-30 -144q78 66 172 105t178 39q104 0 171.5 -47.5t67.5 -126.5q61 76 163 125t200 49q117 0 186.5 -61.5t69.5 -166.5q0 -45 -16 -120l-82 -385q-6 -23 -8.5 -43.5t-2.5 -30.5q0 -39 16.5 -61.5 t43.5 -22.5q29 0 51.5 13t56.5 40l29 -35q-99 -110 -211 -110h-2q-61 0 -97 37.5t-36 101.5q0 35 16 111l78 364q16 80 17 109q0 68 -47.5 110.5t-122.5 42.5q-145 0 -285 -141l-154 -721h-143l117 555q12 45 19 78t7 57q0 78 -47 125t-127 47q-150 0 -301 -141l-153 -721 h-144z" />
<glyph unicode="n" horiz-adv-x="1249" d="M92 0l166 780l8 60q0 61 -45 61l-43 -8l10 43l265 33l-31 -144q168 143 360 144q131 0 208 -60.5t77 -163.5q0 -35 -23 -147l-69 -332q-20 -88 -21 -119q0 -65 66 -65h2q16 0 39.5 8t68.5 43l31 -37q-108 -110 -223 -110h-2q-63 0 -101 35.5t-38 99.5q0 39 12 98l84 397 q16 72 16 99q0 72 -51 114.5t-137 42.5q-164 0 -328 -188l-147 -684h-154z" />
<glyph unicode="o" horiz-adv-x="1142" d="M84 403q0 238 151.5 402t382.5 164q193 0 312 -112.5t119 -305.5q0 -229 -160 -397t-379 -168q-193 0 -309.5 114.5t-116.5 302.5zM233 387q0 -143 78 -223t219 -80q152 0 260.5 141t108.5 340q0 145 -71.5 225t-209.5 80q-160 0 -272.5 -141t-112.5 -342z" />
<glyph unicode="p" horiz-adv-x="1202" d="M-76 -432l8 33q45 6 65.5 24.5t29.5 63.5l229 1083q8 39 10 47q2 12 2 31q0 51 -45 51l-45 -2l8 43l267 29l-31 -150q133 150 334 150q152 0 254 -100.5t102 -254.5q0 -281 -211 -454.5t-547 -173.5h-24q-29 0 -84 6l-60 -281l-8 -55q0 -27 11.5 -36t54.5 -21l-6 -33 h-314zM266 88l56 -2h55q262 0 416.5 138.5t154.5 371.5q0 123 -68.5 199.5t-181.5 76.5q-168 0 -301 -163z" />
<glyph unicode="q" horiz-adv-x="1200" d="M88 352q0 113 48 224.5t132 195.5q119 119 283 158q107 26 311 26h15h299l-7 -32q-45 -10 -62 -26.5t-26 -61.5l-237 -1117q-4 -18 -6 -26q-4 -18 -4 -29q0 -25 6 -33t32 -18l17 -8l-6 -33h-310l9 33q57 8 73.5 22.5t28.5 65.5l86 411q-76 -55 -157 -85.5t-164 -30.5 q-156 0 -258.5 102.5t-102.5 261.5zM254 387q0 -127 67.5 -205t180.5 -78q160 0 293 109l135 643q-41 10 -59.5 12t-67.5 2q-244 0 -379 -116q-80 -68 -125 -165t-45 -202z" />
<glyph unicode="r" horiz-adv-x="768" d="M92 0l164 770q6 29 9 46.5t3 31.5q0 53 -45 53l-37 -4l9 45l258 27l-43 -199q102 199 303 199q53 0 112 -27l-51 -172h-37q-20 88 -106 88q-55 0 -109.5 -30.5t-91.5 -84.5q-20 -29 -33.5 -65.5t-29.5 -112.5l-121 -565h-154z" />
<glyph unicode="s" horiz-adv-x="946" d="M0 158l158 141l26 -25q-27 -35 -26 -63q0 -59 68.5 -99t174.5 -40q119 0 197 53t78 135q0 109 -255 194t-255 230q0 121 106.5 203t268.5 82q94 0 185 -31t161 -86l-146 -156l-26 21q25 29 24 61q0 49 -59 82t-148 33q-100 0 -158.5 -39t-58.5 -106q0 -82 131 -136 q123 -47 248 -94q133 -72 133 -194q0 -143 -121.5 -240.5t-304.5 -97.5q-123 0 -223 42t-178 130z" />
<glyph unicode="t" horiz-adv-x="675" d="M156 152q0 41 16 120l131 615h-131l14 65q111 0 146 78q2 6 45 201l151 37l-65 -314h205l-15 -67h-204l-130 -604q-16 -76 -16 -111q0 -94 107 -94q109 0 161 98h31l-33 -156q-53 -18 -99 -26t-93 -8q-221 0 -221 166z" />
<glyph unicode="u" horiz-adv-x="1241" d="M150 199q0 49 20 151l90 420q4 20 8 40.5t4 37.5q0 53 -47 53l-14 -2l-31 -2l8 45l269 27l-121 -563q-12 -57 -18.5 -94.5t-6.5 -78.5q0 -57 47.5 -96t120.5 -39q80 0 173 45t161 117l148 694h153l-139 -653q-6 -35 -12.5 -69.5t-6.5 -67.5q0 -82 66 -82q51 0 121 59 l35 -32q-51 -57 -108.5 -90t-113.5 -33q-66 0 -104.5 38.5t-38.5 104.5l2 37q-80 -80 -187.5 -130t-205.5 -50q-272 0 -272 213z" />
<glyph unicode="v" horiz-adv-x="1095" d="M131 207q0 29 3 48t16 89l92 426q0 12 6 39t6 39q0 53 -47 53l-14 -2l-27 -2l8 45l264 27l-133 -625q-8 -37 -12 -61.5t-4 -44.5q0 -66 52 -107t136 -41q172 0 295 150.5t123 361.5q0 113 -33 182.5t-88 69.5q-25 0 -65 -18l-15 32l232 144q82 -130 82 -312 q0 -291 -171 -502.5t-405 -211.5q-137 0 -219 59t-82 162z" />
<glyph unicode="w" horiz-adv-x="1712" d="M131 199q0 61 21 157l88 414q8 39 10 47q2 12 2 31q0 53 -47 53l-15 -2l-38 -2l8 45l276 27l-133 -623q-4 -23 -8 -53.5t-4 -44.5q0 -66 46 -106t118 -40q70 0 152.5 43t154.5 117l147 692h154l-127 -598q-12 -59 -12 -98q0 -72 49 -115t127 -43q158 0 280.5 154 t122.5 354q0 115 -34.5 182.5t-94.5 67.5q-25 0 -65 -16l-17 35l236 143q41 -53 65.5 -138t24.5 -169q0 -293 -170 -510t-399 -217q-131 0 -207 49t-76 137q-78 -84 -182.5 -135t-200.5 -51q-121 0 -186.5 55t-65.5 158z" />
<glyph unicode="x" horiz-adv-x="1075" d="M-16 -6l53 254h39l-2 -23q0 -61 51 -61q66 0 176 139q49 61 139 199l-96 254q-35 90 -58.5 116.5t-66.5 26.5l-22 -2l8 37l229 35l123 -346q129 188 228.5 271t189.5 83q16 2 24 2q13 0 27 -8l-51 -242h-33q0 104 -72 105q-47 0 -111.5 -67t-168.5 -220l123 -299 q70 -170 141 -170q27 0 55 16q8 4 49 33l31 -35q-100 -106 -217 -106q-68 0 -106.5 32.5t-75.5 120.5l-115 281q-137 -201 -190 -264q-145 -170 -256 -170q-18 0 -45 8z" />
<glyph unicode="y" horiz-adv-x="1202" d="M-31 -248l178 139l23 -26q-33 -43 -33 -68q0 -57 85 -98t206 -41q111 0 211 55.5t127 132.5q18 49 18 127l-2 45l2 113q-57 -61 -155.5 -102t-190.5 -41q-127 0 -206.5 67.5t-79.5 175.5q0 37 16 123l90 418q8 39 10 47q2 12 2 31q0 51 -47 51l-45 -2l8 43l269 29 l-131 -617q-14 -68 -15 -98q0 -72 51.5 -117t133.5 -45q80 0 165.5 43t151.5 117l150 702h153l-156 -731q-12 -55 -16 -87t-4 -60l2 -66q0 -111 -27.5 -182.5t-93.5 -128.5q-164 -145 -418 -145q-133 0 -245.5 51t-186.5 145z" />
<glyph unicode="z" horiz-adv-x="933" d="M-10 0q51 180 166 299q55 59 200.5 178t204.5 178q106 106 156 211h-318q-104 0 -141 -17.5t-68 -80.5h-36l39 188h718q-43 -188 -186 -338q-29 -31 -285 -239q-178 -145 -258 -283h389q90 0 127 22.5t56 90.5h43l-45 -209h-762z" />
<glyph unicode="{" horiz-adv-x="813" d="M35 633l6 31q135 0 180 48t76 216q41 233 71.5 323t84.5 146q47 47 114.5 63.5t151.5 16.5q31 0 56.5 -1t45.5 -1l-8 -45q-152 0 -222.5 -51.5t-98.5 -174.5q-37 -174 -72 -346q-57 -174 -205 -207q119 -33 119 -157q0 -68 -48 -264.5t-48 -274.5q0 -80 50 -112.5 t179 -32.5l-8 -46h-78q-131 0 -193 27q-94 41 -94 152q0 100 56.5 296.5t56.5 276.5q0 61 -39 89t-133 28z" />
<glyph unicode="|" horiz-adv-x="1024" d="M471 -342v1706h117v-1706h-117z" />
<glyph unicode="}" horiz-adv-x="813" d="M12 -236l11 46q98 0 150 15t91 54q63 63 101 262q47 256 71 320q61 162 195 184l2 6q-121 29 -121 146q0 66 43 227.5t43 245.5q0 92 -48 126t-183 34l8 45h106q119 0 172 -25q82 -39 82 -145q0 -88 -28 -211q-68 -289 -68 -318q0 -112 172 -112l-6 -31q-111 0 -166 -41 t-72 -129q-29 -162 -55 -322q-45 -209 -117 -288q-49 -53 -131 -74q-59 -14 -155 -15h-97z" />
<glyph unicode="~" horiz-adv-x="1024" d="M35 594q135 201 295 201q61 0 141 -25q184 -57 234 -57q117 0 210 110l35 -18q-59 -92 -139 -145.5t-158 -53.5q-61 0 -145 27q-188 59 -242 59q-61 0 -110 -35q-14 -10 -86 -82z" />
<glyph unicode="&#xa1;" d="M406 586q0 82 57 139t139 57t141.5 -57t59.5 -139t-57.5 -139.5t-143.5 -57.5q-82 0 -139 57.5t-57 139.5z" />
<glyph unicode="&#xa2;" d="M406 586q0 82 57 139t139 57t141.5 -57t59.5 -139t-57.5 -139.5t-143.5 -57.5q-82 0 -139 57.5t-57 139.5z" />
<glyph unicode="&#xa3;" d="M406 586q0 82 57 139t139 57t141.5 -57t59.5 -139t-57.5 -139.5t-143.5 -57.5q-82 0 -139 57.5t-57 139.5z" />
<glyph unicode="&#xa4;" d="M406 586q0 82 57 139t139 57t141.5 -57t59.5 -139t-57.5 -139.5t-143.5 -57.5q-82 0 -139 57.5t-57 139.5z" />
<glyph unicode="&#xa5;" d="M406 586q0 82 57 139t139 57t141.5 -57t59.5 -139t-57.5 -139.5t-143.5 -57.5q-82 0 -139 57.5t-57 139.5z" />
<glyph unicode="&#xa6;" horiz-adv-x="962" d="M459 313h116v-655h-116v655zM459 678v686h116v-686h-116z" />
<glyph unicode="&#xa7;" d="M406 586q0 82 57 139t139 57t141.5 -57t59.5 -139t-57.5 -139.5t-143.5 -57.5q-82 0 -139 57.5t-57 139.5z" />
<glyph unicode="&#xa8;" d="M406 586q0 82 57 139t139 57t141.5 -57t59.5 -139t-57.5 -139.5t-143.5 -57.5q-82 0 -139 57.5t-57 139.5z" />
<glyph unicode="&#xa9;" d="M406 586q0 82 57 139t139 57t141.5 -57t59.5 -139t-57.5 -139.5t-143.5 -57.5q-82 0 -139 57.5t-57 139.5z" />
<glyph unicode="&#xaa;" d="M406 586q0 82 57 139t139 57t141.5 -57t59.5 -139t-57.5 -139.5t-143.5 -57.5q-82 0 -139 57.5t-57 139.5z" />
<glyph unicode="&#xab;" d="M406 586q0 82 57 139t139 57t141.5 -57t59.5 -139t-57.5 -139.5t-143.5 -57.5q-82 0 -139 57.5t-57 139.5z" />
<glyph unicode="&#xac;" d="M406 586q0 82 57 139t139 57t141.5 -57t59.5 -139t-57.5 -139.5t-143.5 -57.5q-82 0 -139 57.5t-57 139.5z" />
<glyph unicode="&#xad;" d="M406 586q0 82 57 139t139 57t141.5 -57t59.5 -139t-57.5 -139.5t-143.5 -57.5q-82 0 -139 57.5t-57 139.5z" />
<glyph unicode="&#xae;" d="M406 586q0 82 57 139t139 57t141.5 -57t59.5 -139t-57.5 -139.5t-143.5 -57.5q-82 0 -139 57.5t-57 139.5z" />
<glyph unicode="&#xaf;" d="M406 586q0 82 57 139t139 57t141.5 -57t59.5 -139t-57.5 -139.5t-143.5 -57.5q-82 0 -139 57.5t-57 139.5z" />
<glyph unicode="&#xb0;" d="M406 586q0 82 57 139t139 57t141.5 -57t59.5 -139t-57.5 -139.5t-143.5 -57.5q-82 0 -139 57.5t-57 139.5z" />
<glyph unicode="&#xb1;" d="M406 586q0 82 57 139t139 57t141.5 -57t59.5 -139t-57.5 -139.5t-143.5 -57.5q-82 0 -139 57.5t-57 139.5z" />
<glyph unicode="&#xb2;" d="M406 586q0 82 57 139t139 57t141.5 -57t59.5 -139t-57.5 -139.5t-143.5 -57.5q-82 0 -139 57.5t-57 139.5z" />
<glyph unicode="&#xb3;" d="M406 586q0 82 57 139t139 57t141.5 -57t59.5 -139t-57.5 -139.5t-143.5 -57.5q-82 0 -139 57.5t-57 139.5z" />
<glyph unicode="&#xb4;" d="M406 586q0 82 57 139t139 57t141.5 -57t59.5 -139t-57.5 -139.5t-143.5 -57.5q-82 0 -139 57.5t-57 139.5z" />
<glyph unicode="&#xb5;" d="M406 586q0 82 57 139t139 57t141.5 -57t59.5 -139t-57.5 -139.5t-143.5 -57.5q-82 0 -139 57.5t-57 139.5z" />
<glyph unicode="&#xb6;" horiz-adv-x="1091" d="M59 918q0 131 74 240.5t193 158.5q68 27 137 37t184 10h393l-8 -41q-47 -6 -64.5 -23.5t-27.5 -70.5l-319 -1497l-7 -45q0 -39 60 -47l-8 -43h-199l364 1716h-102l-364 -1716h-199l8 43q49 6 65.5 22t28.5 70l187 884q-174 0 -273 62q-123 78 -123 240z" />
<glyph unicode="&#xb7;" horiz-adv-x="546" d="M164 496q0 51 40 84.5t97 33.5q39 0 65.5 -33.5t26.5 -82.5t-39 -82t-96 -33q-37 0 -65.5 33t-28.5 80z" />
<glyph unicode="&#xb8;" d="M406 586q0 82 57 139t139 57t141.5 -57t59.5 -139t-57.5 -139.5t-143.5 -57.5q-82 0 -139 57.5t-57 139.5z" />
<glyph unicode="&#xb9;" d="M406 586q0 82 57 139t139 57t141.5 -57t59.5 -139t-57.5 -139.5t-143.5 -57.5q-82 0 -139 57.5t-57 139.5z" />
<glyph unicode="&#xba;" d="M406 586q0 82 57 139t139 57t141.5 -57t59.5 -139t-57.5 -139.5t-143.5 -57.5q-82 0 -139 57.5t-57 139.5z" />
<glyph unicode="&#xbb;" d="M406 586q0 82 57 139t139 57t141.5 -57t59.5 -139t-57.5 -139.5t-143.5 -57.5q-82 0 -139 57.5t-57 139.5z" />
<glyph unicode="&#xbc;" d="M406 586q0 82 57 139t139 57t141.5 -57t59.5 -139t-57.5 -139.5t-143.5 -57.5q-82 0 -139 57.5t-57 139.5z" />
<glyph unicode="&#xbd;" d="M406 586q0 82 57 139t139 57t141.5 -57t59.5 -139t-57.5 -139.5t-143.5 -57.5q-82 0 -139 57.5t-57 139.5z" />
<glyph unicode="&#xbe;" d="M406 586q0 82 57 139t139 57t141.5 -57t59.5 -139t-57.5 -139.5t-143.5 -57.5q-82 0 -139 57.5t-57 139.5z" />
<glyph unicode="&#xbf;" d="M406 586q0 82 57 139t139 57t141.5 -57t59.5 -139t-57.5 -139.5t-143.5 -57.5q-82 0 -139 57.5t-57 139.5z" />
<glyph unicode="&#xc0;" d="M406 586q0 82 57 139t139 57t141.5 -57t59.5 -139t-57.5 -139.5t-143.5 -57.5q-82 0 -139 57.5t-57 139.5z" />
<glyph unicode="&#xc1;" d="M406 586q0 82 57 139t139 57t141.5 -57t59.5 -139t-57.5 -139.5t-143.5 -57.5q-82 0 -139 57.5t-57 139.5z" />
<glyph unicode="&#xc2;" d="M406 586q0 82 57 139t139 57t141.5 -57t59.5 -139t-57.5 -139.5t-143.5 -57.5q-82 0 -139 57.5t-57 139.5z" />
<glyph unicode="&#xc3;" d="M406 586q0 82 57 139t139 57t141.5 -57t59.5 -139t-57.5 -139.5t-143.5 -57.5q-82 0 -139 57.5t-57 139.5z" />
<glyph unicode="&#xc4;" d="M406 586q0 82 57 139t139 57t141.5 -57t59.5 -139t-57.5 -139.5t-143.5 -57.5q-82 0 -139 57.5t-57 139.5z" />
<glyph unicode="&#xc5;" d="M406 586q0 82 57 139t139 57t141.5 -57t59.5 -139t-57.5 -139.5t-143.5 -57.5q-82 0 -139 57.5t-57 139.5z" />
<glyph unicode="&#xc6;" d="M406 586q0 82 57 139t139 57t141.5 -57t59.5 -139t-57.5 -139.5t-143.5 -57.5q-82 0 -139 57.5t-57 139.5z" />
<glyph unicode="&#xc7;" d="M406 586q0 82 57 139t139 57t141.5 -57t59.5 -139t-57.5 -139.5t-143.5 -57.5q-82 0 -139 57.5t-57 139.5z" />
<glyph unicode="&#xc8;" d="M406 586q0 82 57 139t139 57t141.5 -57t59.5 -139t-57.5 -139.5t-143.5 -57.5q-82 0 -139 57.5t-57 139.5z" />
<glyph unicode="&#xc9;" d="M406 586q0 82 57 139t139 57t141.5 -57t59.5 -139t-57.5 -139.5t-143.5 -57.5q-82 0 -139 57.5t-57 139.5z" />
<glyph unicode="&#xca;" d="M406 586q0 82 57 139t139 57t141.5 -57t59.5 -139t-57.5 -139.5t-143.5 -57.5q-82 0 -139 57.5t-57 139.5z" />
<glyph unicode="&#xcb;" d="M406 586q0 82 57 139t139 57t141.5 -57t59.5 -139t-57.5 -139.5t-143.5 -57.5q-82 0 -139 57.5t-57 139.5z" />
<glyph unicode="&#xcc;" d="M406 586q0 82 57 139t139 57t141.5 -57t59.5 -139t-57.5 -139.5t-143.5 -57.5q-82 0 -139 57.5t-57 139.5z" />
<glyph unicode="&#xcd;" d="M406 586q0 82 57 139t139 57t141.5 -57t59.5 -139t-57.5 -139.5t-143.5 -57.5q-82 0 -139 57.5t-57 139.5z" />
<glyph unicode="&#xce;" d="M406 586q0 82 57 139t139 57t141.5 -57t59.5 -139t-57.5 -139.5t-143.5 -57.5q-82 0 -139 57.5t-57 139.5z" />
<glyph unicode="&#xcf;" d="M406 586q0 82 57 139t139 57t141.5 -57t59.5 -139t-57.5 -139.5t-143.5 -57.5q-82 0 -139 57.5t-57 139.5z" />
<glyph unicode="&#xd0;" d="M406 586q0 82 57 139t139 57t141.5 -57t59.5 -139t-57.5 -139.5t-143.5 -57.5q-82 0 -139 57.5t-57 139.5z" />
<glyph unicode="&#xd1;" d="M406 586q0 82 57 139t139 57t141.5 -57t59.5 -139t-57.5 -139.5t-143.5 -57.5q-82 0 -139 57.5t-57 139.5z" />
<glyph unicode="&#xd2;" d="M406 586q0 82 57 139t139 57t141.5 -57t59.5 -139t-57.5 -139.5t-143.5 -57.5q-82 0 -139 57.5t-57 139.5z" />
<glyph unicode="&#xd3;" d="M406 586q0 82 57 139t139 57t141.5 -57t59.5 -139t-57.5 -139.5t-143.5 -57.5q-82 0 -139 57.5t-57 139.5z" />
<glyph unicode="&#xd4;" d="M406 586q0 82 57 139t139 57t141.5 -57t59.5 -139t-57.5 -139.5t-143.5 -57.5q-82 0 -139 57.5t-57 139.5z" />
<glyph unicode="&#xd5;" d="M406 586q0 82 57 139t139 57t141.5 -57t59.5 -139t-57.5 -139.5t-143.5 -57.5q-82 0 -139 57.5t-57 139.5z" />
<glyph unicode="&#xd6;" d="M406 586q0 82 57 139t139 57t141.5 -57t59.5 -139t-57.5 -139.5t-143.5 -57.5q-82 0 -139 57.5t-57 139.5z" />
<glyph unicode="&#xd7;" d="M406 586q0 82 57 139t139 57t141.5 -57t59.5 -139t-57.5 -139.5t-143.5 -57.5q-82 0 -139 57.5t-57 139.5z" />
<glyph unicode="&#xd8;" d="M406 586q0 82 57 139t139 57t141.5 -57t59.5 -139t-57.5 -139.5t-143.5 -57.5q-82 0 -139 57.5t-57 139.5z" />
<glyph unicode="&#xd9;" d="M406 586q0 82 57 139t139 57t141.5 -57t59.5 -139t-57.5 -139.5t-143.5 -57.5q-82 0 -139 57.5t-57 139.5z" />
<glyph unicode="&#xda;" d="M406 586q0 82 57 139t139 57t141.5 -57t59.5 -139t-57.5 -139.5t-143.5 -57.5q-82 0 -139 57.5t-57 139.5z" />
<glyph unicode="&#xdb;" d="M406 586q0 82 57 139t139 57t141.5 -57t59.5 -139t-57.5 -139.5t-143.5 -57.5q-82 0 -139 57.5t-57 139.5z" />
<glyph unicode="&#xdc;" d="M406 586q0 82 57 139t139 57t141.5 -57t59.5 -139t-57.5 -139.5t-143.5 -57.5q-82 0 -139 57.5t-57 139.5z" />
<glyph unicode="&#xdd;" d="M406 586q0 82 57 139t139 57t141.5 -57t59.5 -139t-57.5 -139.5t-143.5 -57.5q-82 0 -139 57.5t-57 139.5z" />
<glyph unicode="&#xde;" d="M406 586q0 82 57 139t139 57t141.5 -57t59.5 -139t-57.5 -139.5t-143.5 -57.5q-82 0 -139 57.5t-57 139.5z" />
<glyph unicode="&#xdf;" d="M406 586q0 82 57 139t139 57t141.5 -57t59.5 -139t-57.5 -139.5t-143.5 -57.5q-82 0 -139 57.5t-57 139.5z" />
<glyph unicode="&#xe0;" d="M406 586q0 82 57 139t139 57t141.5 -57t59.5 -139t-57.5 -139.5t-143.5 -57.5q-82 0 -139 57.5t-57 139.5z" />
<glyph unicode="&#xe1;" d="M406 586q0 82 57 139t139 57t141.5 -57t59.5 -139t-57.5 -139.5t-143.5 -57.5q-82 0 -139 57.5t-57 139.5z" />
<glyph unicode="&#xe2;" d="M406 586q0 82 57 139t139 57t141.5 -57t59.5 -139t-57.5 -139.5t-143.5 -57.5q-82 0 -139 57.5t-57 139.5z" />
<glyph unicode="&#xe3;" d="M406 586q0 82 57 139t139 57t141.5 -57t59.5 -139t-57.5 -139.5t-143.5 -57.5q-82 0 -139 57.5t-57 139.5z" />
<glyph unicode="&#xe4;" d="M406 586q0 82 57 139t139 57t141.5 -57t59.5 -139t-57.5 -139.5t-143.5 -57.5q-82 0 -139 57.5t-57 139.5z" />
<glyph unicode="&#xe5;" d="M406 586q0 82 57 139t139 57t141.5 -57t59.5 -139t-57.5 -139.5t-143.5 -57.5q-82 0 -139 57.5t-57 139.5z" />
<glyph unicode="&#xe6;" d="M406 586q0 82 57 139t139 57t141.5 -57t59.5 -139t-57.5 -139.5t-143.5 -57.5q-82 0 -139 57.5t-57 139.5z" />
<glyph unicode="&#xe7;" d="M406 586q0 82 57 139t139 57t141.5 -57t59.5 -139t-57.5 -139.5t-143.5 -57.5q-82 0 -139 57.5t-57 139.5z" />
<glyph unicode="&#xe8;" d="M406 586q0 82 57 139t139 57t141.5 -57t59.5 -139t-57.5 -139.5t-143.5 -57.5q-82 0 -139 57.5t-57 139.5z" />
<glyph unicode="&#xe9;" d="M406 586q0 82 57 139t139 57t141.5 -57t59.5 -139t-57.5 -139.5t-143.5 -57.5q-82 0 -139 57.5t-57 139.5z" />
<glyph unicode="&#xea;" d="M406 586q0 82 57 139t139 57t141.5 -57t59.5 -139t-57.5 -139.5t-143.5 -57.5q-82 0 -139 57.5t-57 139.5z" />
<glyph unicode="&#xeb;" d="M406 586q0 82 57 139t139 57t141.5 -57t59.5 -139t-57.5 -139.5t-143.5 -57.5q-82 0 -139 57.5t-57 139.5z" />
<glyph unicode="&#xec;" d="M406 586q0 82 57 139t139 57t141.5 -57t59.5 -139t-57.5 -139.5t-143.5 -57.5q-82 0 -139 57.5t-57 139.5z" />
<glyph unicode="&#xed;" d="M406 586q0 82 57 139t139 57t141.5 -57t59.5 -139t-57.5 -139.5t-143.5 -57.5q-82 0 -139 57.5t-57 139.5z" />
<glyph unicode="&#xee;" d="M406 586q0 82 57 139t139 57t141.5 -57t59.5 -139t-57.5 -139.5t-143.5 -57.5q-82 0 -139 57.5t-57 139.5z" />
<glyph unicode="&#xef;" d="M406 586q0 82 57 139t139 57t141.5 -57t59.5 -139t-57.5 -139.5t-143.5 -57.5q-82 0 -139 57.5t-57 139.5z" />
<glyph unicode="&#xf0;" d="M406 586q0 82 57 139t139 57t141.5 -57t59.5 -139t-57.5 -139.5t-143.5 -57.5q-82 0 -139 57.5t-57 139.5z" />
<glyph unicode="&#xf1;" d="M406 586q0 82 57 139t139 57t141.5 -57t59.5 -139t-57.5 -139.5t-143.5 -57.5q-82 0 -139 57.5t-57 139.5z" />
<glyph unicode="&#xf2;" d="M406 586q0 82 57 139t139 57t141.5 -57t59.5 -139t-57.5 -139.5t-143.5 -57.5q-82 0 -139 57.5t-57 139.5z" />
<glyph unicode="&#xf3;" d="M406 586q0 82 57 139t139 57t141.5 -57t59.5 -139t-57.5 -139.5t-143.5 -57.5q-82 0 -139 57.5t-57 139.5z" />
<glyph unicode="&#xf4;" d="M406 586q0 82 57 139t139 57t141.5 -57t59.5 -139t-57.5 -139.5t-143.5 -57.5q-82 0 -139 57.5t-57 139.5z" />
<glyph unicode="&#xf5;" d="M406 586q0 82 57 139t139 57t141.5 -57t59.5 -139t-57.5 -139.5t-143.5 -57.5q-82 0 -139 57.5t-57 139.5z" />
<glyph unicode="&#xf6;" d="M406 586q0 82 57 139t139 57t141.5 -57t59.5 -139t-57.5 -139.5t-143.5 -57.5q-82 0 -139 57.5t-57 139.5z" />
<glyph unicode="&#xf7;" d="M406 586q0 82 57 139t139 57t141.5 -57t59.5 -139t-57.5 -139.5t-143.5 -57.5q-82 0 -139 57.5t-57 139.5z" />
<glyph unicode="&#xf8;" d="M406 586q0 82 57 139t139 57t141.5 -57t59.5 -139t-57.5 -139.5t-143.5 -57.5q-82 0 -139 57.5t-57 139.5z" />
<glyph unicode="&#xf9;" d="M406 586q0 82 57 139t139 57t141.5 -57t59.5 -139t-57.5 -139.5t-143.5 -57.5q-82 0 -139 57.5t-57 139.5z" />
<glyph unicode="&#xfa;" d="M406 586q0 82 57 139t139 57t141.5 -57t59.5 -139t-57.5 -139.5t-143.5 -57.5q-82 0 -139 57.5t-57 139.5z" />
<glyph unicode="&#xfb;" d="M406 586q0 82 57 139t139 57t141.5 -57t59.5 -139t-57.5 -139.5t-143.5 -57.5q-82 0 -139 57.5t-57 139.5z" />
<glyph unicode="&#xfc;" d="M406 586q0 82 57 139t139 57t141.5 -57t59.5 -139t-57.5 -139.5t-143.5 -57.5q-82 0 -139 57.5t-57 139.5z" />
<glyph unicode="&#xfd;" d="M406 586q0 82 57 139t139 57t141.5 -57t59.5 -139t-57.5 -139.5t-143.5 -57.5q-82 0 -139 57.5t-57 139.5z" />
<glyph unicode="&#xfe;" d="M406 586q0 82 57 139t139 57t141.5 -57t59.5 -139t-57.5 -139.5t-143.5 -57.5q-82 0 -139 57.5t-57 139.5z" />
<glyph unicode="&#xff;" d="M406 586q0 82 57 139t139 57t141.5 -57t59.5 -139t-57.5 -139.5t-143.5 -57.5q-82 0 -139 57.5t-57 139.5z" />
<glyph unicode="&#x152;" d="M406 586q0 82 57 139t139 57t141.5 -57t59.5 -139t-57.5 -139.5t-143.5 -57.5q-82 0 -139 57.5t-57 139.5z" />
<glyph unicode="&#x153;" d="M406 586q0 82 57 139t139 57t141.5 -57t59.5 -139t-57.5 -139.5t-143.5 -57.5q-82 0 -139 57.5t-57 139.5z" />
<glyph unicode="&#x178;" d="M406 586q0 82 57 139t139 57t141.5 -57t59.5 -139t-57.5 -139.5t-143.5 -57.5q-82 0 -139 57.5t-57 139.5z" />
<glyph unicode="&#x2c6;" d="M406 586q0 82 57 139t139 57t141.5 -57t59.5 -139t-57.5 -139.5t-143.5 -57.5q-82 0 -139 57.5t-57 139.5z" />
<glyph unicode="&#x2dc;" d="M406 586q0 82 57 139t139 57t141.5 -57t59.5 -139t-57.5 -139.5t-143.5 -57.5q-82 0 -139 57.5t-57 139.5z" />
<glyph unicode="&#x2000;" horiz-adv-x="798" />
<glyph unicode="&#x2001;" horiz-adv-x="1597" />
<glyph unicode="&#x2002;" horiz-adv-x="798" />
<glyph unicode="&#x2003;" horiz-adv-x="1597" />
<glyph unicode="&#x2004;" horiz-adv-x="532" />
<glyph unicode="&#x2005;" horiz-adv-x="399" />
<glyph unicode="&#x2006;" horiz-adv-x="266" />
<glyph unicode="&#x2007;" horiz-adv-x="266" />
<glyph unicode="&#x2008;" horiz-adv-x="199" />
<glyph unicode="&#x2009;" horiz-adv-x="319" />
<glyph unicode="&#x200a;" horiz-adv-x="88" />
<glyph unicode="&#x2010;" horiz-adv-x="458" d="M31 436l26 127h377l-26 -127h-377z" />
<glyph unicode="&#x2011;" horiz-adv-x="458" d="M31 436l26 127h377l-26 -127h-377z" />
<glyph unicode="&#x2012;" horiz-adv-x="458" d="M31 436l26 127h377l-26 -127h-377z" />
<glyph unicode="&#x2013;" d="M406 586q0 82 57 139t139 57t141.5 -57t59.5 -139t-57.5 -139.5t-143.5 -57.5q-82 0 -139 57.5t-57 139.5z" />
<glyph unicode="&#x2014;" d="M406 586q0 82 57 139t139 57t141.5 -57t59.5 -139t-57.5 -139.5t-143.5 -57.5q-82 0 -139 57.5t-57 139.5z" />
<glyph unicode="&#x2018;" d="M406 586q0 82 57 139t139 57t141.5 -57t59.5 -139t-57.5 -139.5t-143.5 -57.5q-82 0 -139 57.5t-57 139.5z" />
<glyph unicode="&#x2019;" d="M406 586q0 82 57 139t139 57t141.5 -57t59.5 -139t-57.5 -139.5t-143.5 -57.5q-82 0 -139 57.5t-57 139.5z" />
<glyph unicode="&#x201a;" d="M406 586q0 82 57 139t139 57t141.5 -57t59.5 -139t-57.5 -139.5t-143.5 -57.5q-82 0 -139 57.5t-57 139.5z" />
<glyph unicode="&#x201c;" d="M406 586q0 82 57 139t139 57t141.5 -57t59.5 -139t-57.5 -139.5t-143.5 -57.5q-82 0 -139 57.5t-57 139.5z" />
<glyph unicode="&#x201d;" d="M406 586q0 82 57 139t139 57t141.5 -57t59.5 -139t-57.5 -139.5t-143.5 -57.5q-82 0 -139 57.5t-57 139.5z" />
<glyph unicode="&#x201e;" d="M406 586q0 82 57 139t139 57t141.5 -57t59.5 -139t-57.5 -139.5t-143.5 -57.5q-82 0 -139 57.5t-57 139.5z" />
<glyph unicode="&#x2022;" d="M406 586q0 82 57 139t139 57t141.5 -57t59.5 -139t-57.5 -139.5t-143.5 -57.5q-82 0 -139 57.5t-57 139.5z" />
<glyph unicode="&#x2026;" d="M406 586q0 82 57 139t139 57t141.5 -57t59.5 -139t-57.5 -139.5t-143.5 -57.5q-82 0 -139 57.5t-57 139.5z" />
<glyph unicode="&#x202f;" horiz-adv-x="319" />
<glyph unicode="&#x2039;" d="M406 586q0 82 57 139t139 57t141.5 -57t59.5 -139t-57.5 -139.5t-143.5 -57.5q-82 0 -139 57.5t-57 139.5z" />
<glyph unicode="&#x203a;" d="M406 586q0 82 57 139t139 57t141.5 -57t59.5 -139t-57.5 -139.5t-143.5 -57.5q-82 0 -139 57.5t-57 139.5z" />
<glyph unicode="&#x205f;" horiz-adv-x="399" />
<glyph unicode="&#x2122;" d="M406 586q0 82 57 139t139 57t141.5 -57t59.5 -139t-57.5 -139.5t-143.5 -57.5q-82 0 -139 57.5t-57 139.5z" />
<glyph unicode="&#x25fc;" horiz-adv-x="983" d="M0 0v983h983v-983h-983z" />
</font>
</defs>
</svg>
